Олівер і компанія / Oliver & Company (1988) 720p Ukr/Eng | Sub Ukr/Eng

Нові коментарі

Нова тема   Відповісти
Автор Повідомлення
Anonymous 







2018-09-08 15:19  
Олівер і компанія / Oliver & Company (1988) 720p Ukr/Eng | Sub Ukr/Eng

Олівер і компанія / Oliver & Company (1988) 720p Ukr/Eng | Sub Ukr/Eng


Жанр: анімація, комедія, мюзикл, пригодницький, сімейний
Країна: США



Кіностудія / кінокомпанія: Walt Disney Pictures, Walt Disney Feature Animation, Silver Screen Partners III
Режисер: Джордж Шрайбер / George Scribner
Ролі озвучують: Джої Лоуренс / Joey Lawrence, Біллі Джоел / Billy Joel, Чіч Марін / Cheech Marin, Річард Маліґан / Richard Mulligan, Роско Лі Браун / Roscoe Lee Browne, Шеріл Лі Ральф / Sheryl Lee Ralph, Дом ДеЛуіс / Dom DeLuise, Торін Блек / Taurean Blacque та інші.

Сюжет:
Дія мультфільму відбувається в кінці 80-х, у Нью-Йорку. Кошеня Олівер залишилось саме на вулицях великого і жорстокого міста. Одного ранку у пошуках їжі Олівер знайомиться із вуличним псом Доджем, який допомагає йому спочатку поцупити сосиски у вуличного торговця, а згодом бере Олівера до себе в зграю. Далі пригоди чекають на друзів, викрадення, дівчинка Дженні, новий дім...


Рейтинг MPAA: G - немає вікових обмежень
Вікова категорія: 0+

Тривалість: 01:13:32
Якість: 720p [ріп від HiDt]
Відео:
кодек:
розмір кадру: 1280х692
бітрейт: 7401 кб/с

Аудіо # 1:
мова: українська
переклад: професійний дубльований | студія LeDoyen
кодек: 2.0 [стерео]
бітрейт: 192 кб/с
Інформація про дубляж

Переклад тексту: Дмитро Тварковський
Переклад пісень: Ілля Чернілевський
Режисер дубляжу: Максим Кондратюк
Музичний редактор: Іван Давиденко
Звукорежисер: Віктор Алферов
Звукорежисер перезапису: Михайло Угрин
Вокалісти: Сергій Юрченко, Роман Болдузєв, Тетяна Піроженко, Валентина Лонська
Ролі дублювали:
Олівер - Тимофій Кравець,
Фегін - Євген Малуха,
Дженні - Вероніка Лук'яненко,
Доджер - Захар Клименко,
Тіто - Павло Скороходько,
Ейнштейн - Олександр Задніпровський,
Френсіс - Євген Пашин,
Ріта - Анастасія Чумаченко,
Ріта (пісня) - Ольга Нека,
Сайкс - Микола Боклан,
Роско - В'ячеслав Дудко,
Десото - Сергій Кияшко,
Вінстон - Михайло Войчук,
Жоржетта - Олена Узлюк.

Фільм дубльовано та зміксовано студією LeDoyen на замовлення компанії Disney Character Voices International.
Аудіо # 2:
мова: англійська
переклад: оригінал
кодек: 5.1
бітрейт: 1509 кб/с

Субтитри # 1:
мова: українська (форсовані на написи)
тип: програмні (м'які)
формат: *.srt
примітка: компіляція з повних субтитрів - igor911

Субтитри # 2:
мова: українська (повні)
тип: програмні (м'які)
формат: *.srt
джерело: DVD R2

Субтитри # 3-6:
мова: англійська (повні / SDH / на пісні / на пісні SDH)
тип: програмні (м'які)
формат: *.srt

Збережено оригінальні поіменовані розділи, як на Blu-ray (подяка chapterdb.org)
Info
Код:
Complete name               : Oliver & Company (1988) [Ukr,Eng sub.Ukr,Eng] 720p [Hurtom].
Format                      :
Format version              : Version 4
File size                   : 4.68 GiB
Duration                    : 1 h 13 min
Overall bit rate            : 9 086 kb/s
Movie name                  : Олівер і компанія / Oliver & Company (1988) [Ukr,Eng sub.Ukr,Eng] 720p [Hurtom]
Released date               : 1988
Encoded date                : UTC 2018-09-08 16:23:21
Writing application         : v26.0.0 ('In The Game') 64-bit
Writing library             : libebml v1.3.6 + v1.4.9
Cover                       : Yes
Comment                     : https://www.imdb.com/title/tt0095776/
Attachments                 : cover.jpg
DIRECTOR                    : Джордж Шрайбер / George Scribner
GENRE                       : анімація, комедія, мюзикл, пригодницький, сімейний
SYNOPSIS                    : Дія мультфільму відбувається в кінці 80-х, у Нью-Йорку. Кошеня Олівер залишився сам на вулицях великого і жорстокого міста. Одного ранку у пошуках їжі Олівер знайомиться із вуличним псом Доджем, який допомагає йому спочатку поцупити сосиски у вуличного торговця, а згодом бере Олівера до себе в зграю. Далі пригоди чекають на друзів, викрадення, дівчинка Дженні, новий дім...
Url                         : https://toloka.to/t94939

Video
ID                          : 1
Format                      : AVC
Format/Info                 : Advanced Video Codec
Format profile              : [email protected]
Format settings             : CABAC / 9 Ref Frames
Format settings, CABAC      : Yes
Format settings, ReFrames   : 9 frames
Codec ID                    : V_MPEG4/ISO/AVC
Duration                    : 1 h 13 min
Bit rate                    : 7 401 kb/s
Width                       : 1 280 pixels
Height                      : 692 pixels
Display aspect ratio        : 1.85:1
Frame rate mode             : Constant
Frame rate                  : 23.976 (24000/1001) FPS
Color space                 : YUV
Chroma subsampling          : 4:2:0
Bit depth                   : 8 bits
Scan type                   : Progressive
Bits/(Pixel*Frame)          : 0.348
Stream size                 : 3.80 GiB (81%)
Title                       : Олівер і компанія / Oliver & Company (1988) 720p [HiDt]
Writing library             : core 130 r2273 b3065e6
Encoding settings           : cabac=1 / ref=9 / deblock=1:-3:-3 / analyse=0x3:0x113 / me=tesa / subme=11 / psy=1 / psy_rd=0.85:0.00 / mixed_ref=1 / me_range=32 / chroma_me=1 / trellis=2 / 8x8dct=1 / cqm=0 / deadzone=21,11 / fast_pskip=0 / chroma_qp_offset=-2 / threads=12 / lookahead_threads=2 / sliced_threads=0 / nr=0 / decimate=1 / interlaced=0 / bluray_compat=0 / constrained_intra=0 / bframes=8 / b_pyramid=2 / b_adapt=2 / b_bias=0 / direct=3 / weightb=1 / open_gop=0 / weightp=2 / keyint=250 / keyint_min=25 / scenecut=40 / intra_refresh=0 / rc=crf / mbtree=0 / crf=16.7 / qcomp=0.80 / qpmin=0 / qpmax=69 / qpstep=4 / ip_ratio=1.40 / pb_ratio=1.30 / aq=1:0.90
Language                    : English
Default                     : Yes
Forced                      : No
Color range                 : Limited
Matrix coefficients         : BT.709

Audio #1
ID                          : 2
Format                      : AC-3
Format/Info                 : Audio Coding 3
Commercial name             : Dolby Digital
Codec ID                    : A_AC3
Duration                    : 1 h 13 min
Bit rate mode               : Constant
Bit rate                    : 192 kb/s
Channel(s)                  : 2 channels
Channel layout              : L R
Sampling rate               : 48.0 kHz
Frame rate                  : 31.250 FPS (1536 SPF)
Bit depth                   : 16 bits
Compression mode            : Lossy
Stream size                 : 101 MiB (2%)
Title                       : Dub [Ledoyen, Volia Cine+ Kids] 2.0 [stereo] 192 Kbps
Language                    : Ukrainian
Service kind                : Music and Effects
Default                     : Yes
Forced                      : Yes

Audio #2
ID                          : 3
Format                      :
Format/Info                 : Digital Theater Systems
Codec ID                    : A_DTS
Duration                    : 1 h 13 min
Bit rate mode               : Constant
Bit rate                    : 1 509 kb/s
Channel(s)                  : 6 channels
Channel layout              : C L R Ls Rs LFE
Sampling rate               : 48.0 kHz
Frame rate                  : 93.750 FPS (512 SPF)
Bit depth                   : 24 bits
Compression mode            : Lossy
Stream size                 : 796 MiB (17%)
Title                       : Original, 5.1 1509 Kbps
Language                    : English
Default                     : No
Forced                      : No

Text #1
ID                          : 4
Format                      : UTF-8
Codec ID                    : S_TEXT/UTF8
Codec ID/Info               : UTF-8 Plain Text
Duration                    : 1 h 4 min
Bit rate                    : 1 b/s
Count of elements           : 28
Stream size                 : 908 Bytes (0%)
Title                       : Ukr Forced
Language                    : Ukrainian
Default                     : Yes
Forced                      : Yes

Text #2
ID                          : 5
Format                      : UTF-8
Codec ID                    : S_TEXT/UTF8
Codec ID/Info               : UTF-8 Plain Text
Duration                    : 1 h 8 min
Bit rate                    : 94 b/s
Count of elements           : 893
Stream size                 : 47.5 KiB (0%)
Title                       : Ukr full [DVD R2]
Language                    : Ukrainian
Default                     : No
Forced                      : No

Text #3
ID                          : 6
Format                      : UTF-8
Codec ID                    : S_TEXT/UTF8
Codec ID/Info               : UTF-8 Plain Text
Duration                    : 1 h 8 min
Bit rate                    : 58 b/s
Count of elements           : 917
Stream size                 : 29.5 KiB (0%)
Title                       : Eng full
Language                    : English
Default                     : No
Forced                      : No

Text #4
ID                          : 7
Format                      : UTF-8
Codec ID                    : S_TEXT/UTF8
Codec ID/Info               : UTF-8 Plain Text
Duration                    : 1 h 9 min
Bit rate                    : 70 b/s
Count of elements           : 1150
Stream size                 : 35.8 KiB (0%)
Title                       : Eng SDH
Language                    : English
Default                     : No
Forced                      : No

Text #5
ID                          : 8
Format                      : UTF-8
Codec ID                    : S_TEXT/UTF8
Codec ID/Info               : UTF-8 Plain Text
Duration                    : 1 h 8 min
Bit rate                    : 9 b/s
Count of elements           : 177
Stream size                 : 4.76 KiB (0%)
Title                       : Eng foced [for songs]
Language                    : English
Default                     : No
Forced                      : No

Text #6
ID                          : 9
Format                      : UTF-8
Codec ID                    : S_TEXT/UTF8
Codec ID/Info               : UTF-8 Plain Text
Duration                    : 1 h 9 min
Bit rate                    : 10 b/s
Count of elements           : 197
Stream size                 : 5.17 KiB (0%)
Title                       : Eng forced v2 [for songs]
Language                    : English
Default                     : No
Forced                      : No

Menu
00:00:00.000                : en:"Once Upon a Time in New York City"
00:04:11.542                : en:Lookin' for Affection
00:06:59.502                : en:One Crafty Canine
00:09:21.185                : en:"Why Should I Worry?"
00:12:51.437                : en:Meeting the Gang
00:15:10.075                : en:A Drop-In Guest
00:18:48.168                : en:Sykes Pays a Visit
00:24:36.016                : en:Story Time
00:27:50.335                : en:"Streets of Gold"
00:30:30.036                : en:The "Accident"
00:32:31.074                : en:A New Home
00:33:03.106                : en:"Perfect Isn't Easy"
00:36:01.617                : en:Breakfast for Kitty
00:37:58.901                : en:Devising a Plan
00:38:54.332                : en:"Good Company"
00:41:50.424                : en:An Unintentional Catnapping
00:47:55.872                : en:Fagin's Get-Rich Scheme
00:53:25.327                : en:The Payoff
00:56:34.933                : en:Jenny Goes Missing
00:57:20.270                : en:To the Rescue!
01:01:34.357                : en:The Getaway
01:05:07.820                : en:A Very Happy Birthday
01:06:27.066                : en:"Why Should I Worry?" (Reprise)
01:09:24.034                : en:End Credits


Джерело: &
Подяка sando7 та MutuLI за українську доріжку.


Срібний реліз (на рейтинг впливає 50% завантаженого)
 Трекер:    Зареєстрований   

Завантажити / скачати мультфільм українською



відео для новачків



 Зареєстрований:   2018-09-08 19:50
 Розмір:   4.68 GB 
 Оцінка мультфільму:   10/10 (Голосів: 8)
 ЗАЛИШАЙТЕСЬ ЯКОМОГА ДОВШЕ НА РОЗДАЧІ. ЗАВАНТАЖИВ САМ - ДАЙ ЗАВАНТАЖИТИ ІНШИМ!
   
Ваш часовий пояс: GMT + 2 Години

Нова тема   Відповісти