Такер і Дейл проти зла (Убивчі канікули | Ульотні канікули | Забійні Канікули) / Tucker and Dale vs Evil (2010) 1080p 4xUkr/Eng | Sub Eng

Нові коментарі

Нова тема   Відповісти
Автор Повідомлення
Anonymous 







2018-09-08 13:30  
Такер і Дейл проти зла (Убивчі канікули | Ульотні канікули | Забійні Канікули) / Tucker and Dale vs Evil (2010) 1080p 4xUkr/Eng | Sub Eng

Такер і Дейл проти зла (Убивчі канікули | Ульотні канікули | Забійні Канікули) / Tucker and Dale vs Evil (2010) 1080p 4xUkr/Eng | Sub Eng


Жанр: жахи, комедія
Країна: CША, Канада



Кінокомпанія: Eden Rock Media, Looby Lou, Reliance Motion Picture Company
Режисер: Елі Крейг
Актори: Тайлер Лебін, Алан Тьюдік, Кеті Боуден, Джесі Мос, Філіп Грейнджер, Брендон Джей МакЛарен, Крісті Лейн, Челан Сімонс, Тревіс Нельсон, Алекс Арсено

Сюжет:
Компанія студентів з коледжу відправляється за місто, щоб щосили відірватися на вихідних: попити пива, поплавати в озері і подихати чистим лісовим повітрям. Але вже першого ж дня вони зустрічаються з місцевими фермерами Такером і Дейлом, які вирішили подивитись на нещодавно куплений будинок і відремонтувати його. Прийнявши цих "диких", але, по суті, симпатичних хлопців за «злісних місцевих», міські студенти вирішують дати селюкам жорстку відсіч. Але з кожним їхнім кроком стає тільки гірше ...


Тривалість: 01:28:43
Якість: 1080p
Відео:
кодек:
розмір кадру: 1920х816
бітрейт: 9 000 кб/с

Аудіо # 1:
мова: українська
переклад: багатоголосий закадровий
кодек: 2.0
бітрейт: 192 кб/с

Аудіо # 2:
мова: українська
переклад: багатоголосий закадровий
кодек: 2.0
бітрейт: 192 кб/с

Аудіо # 3:
мова: українська
переклад: багатоголосий закадровий
кодек: 5.1
бітрейт: 448 кб/с

Аудіо # 4:
мова: українська
переклад: багатоголосий закадровий
кодек: 5.1
бітрейт: 448 кб/с

Аудіо # 5:
мова: англійська
переклад: оригінал
кодек: 5.1
бітрейт: 1509 кб/с

Аудіо # 6:
мова: англійська (commentary)
переклад: оригінал
кодек: 2.0
бітрейт: 224 кб/с

Субтитри:
мова: англійська
тип: програмні (м'які)
формат: *.srt
Info
General
Unique ID : 234823328369225128838113451338806781640 (0xB0A953F626546740BED6DCF66736E6C8)
Format :
Format version : Version 4 / Version 2
File size : 7.44 GiB
Duration : 1 h 28 min
Overall bit rate : 12.0 Mb/s
Encoded date : UTC 2018-09-08 11:13:47
Writing application : v6.1.0 ('Old Devil') built on Mar 4 2013 09:10:42
Writing library : libebml v1.3.0 + v1.4.0

Video
ID : 1
Format : AVC
Format/Info : Advanced Video Codec
Format profile : [email protected]
Format settings : CABAC / 5 Ref Frames
Format settings, CABAC : Yes
Format settings, ReFrames : 5 frames
Codec ID : V_MPEG4/ISO/AVC
Duration : 1 h 28 min
Bit rate : 9 000 kb/s
Width : 1 920 pixels
Height : 816 pixels
Display aspect ratio : 2.35:1
Frame rate mode : Constant
Frame rate : 23.976 (24000/1001) FPS
Color space : YUV
Chroma subsampling : 4:2:0
Bit depth : 8 bits
Scan type : Progressive
Bits/(Pixel*Frame) : 0.240
Stream size : 5.43 GiB (73%)
Writing library : core 120 r2119 0637cd6
Encoding settings : cabac=1 / ref=5 / deblock=1:-3:-3 / analyse=0x3:0x133 / me=umh / subme=11 / psy=1 / psy_rd=0.90:0.00 / mixed_ref=1 / me_range=48 / chroma_me=1 / trellis=2 / 8x8dct=1 / cqm=0 / deadzone=21,11 / fast_pskip=0 / chroma_qp_offset=-2 / threads=12 / sliced_threads=0 / nr=0 / decimate=0 / interlaced=0 / bluray_compat=0 / constrained_intra=0 / bframes=7 / b_pyramid=2 / b_adapt=2 / b_bias=0 / direct=3 / weightb=1 / open_gop=0 / weightp=2 / keyint=250 / keyint_min=23 / scenecut=40 / intra_refresh=0 / rc_lookahead=40 / rc=2pass / mbtree=1 / bitrate=9000 / ratetol=1.0 / qcomp=0.60 / qpmin=0 / qpmax=69 / qpstep=4 / cplxblur=20.0 / qblur=0.5 / ip_ratio=1.40 / aq=2:0.80
Language : English
Default : Yes
Forced : No

Audio #1
ID : 2
Format : AC-3
Format/Info : Audio Coding 3
Codec ID : A_AC3
Duration : 1 h 28 min
Bit rate mode : Constant
Bit rate : 192 kb/s
Channel(s) : 2 channels
Channel positions : Front: L R
Sampling rate : 48.0 kHz
Frame rate : 31.250 FPS (1536 SPF)
Bit depth : 16 bits
Compression mode : Lossy
Delay relative to video : 3 s 793 ms
Stream size : 122 MiB (2%)
Title : UKR (NLO-TV)
Language : Ukrainian
Service kind : Complete Main
Default : Yes
Forced : Yes

Audio #2
ID : 3
Format : AC-3
Format/Info : Audio Coding 3
Codec ID : A_AC3
Duration : 1 h 28 min
Bit rate mode : Constant
Bit rate : 192 kb/s
Channel(s) : 2 channels
Channel positions : Front: L R
Sampling rate : 48.0 kHz
Frame rate : 31.250 FPS (1536 SPF)
Bit depth : 16 bits
Compression mode : Lossy
Delay relative to video : 3 s 793 ms
Stream size : 122 MiB (2%)
Title : UKR (CINE+)
Language : Ukrainian
Service kind : Complete Main
Default : No
Forced : No

Audio #3
ID : 4
Format : AC-3
Format/Info : Audio Coding 3
Codec ID : A_AC3
Duration : 1 h 28 min
Bit rate mode : Constant
Bit rate : 448 kb/s
Channel(s) : 6 channels
Channel positions : Front: L C R, Side: L R, LFE
Sampling rate : 48.0 kHz
Frame rate : 31.250 FPS (1536 SPF)
Bit depth : 16 bits
Compression mode : Lossy
Delay relative to video : 3 s 793 ms
Stream size : 284 MiB (4%)
Title : UKR (1+1)
Language : Ukrainian
Service kind : Complete Main
Default : No
Forced : No

Audio #4
ID : 5
Format : AC-3
Format/Info : Audio Coding 3
Codec ID : A_AC3
Duration : 1 h 28 min
Bit rate mode : Constant
Bit rate : 448 kb/s
Channel(s) : 6 channels
Channel positions : Front: L C R, Side: L R, LFE
Sampling rate : 48.0 kHz
Frame rate : 31.250 FPS (1536 SPF)
Bit depth : 16 bits
Compression mode : Lossy
Delay relative to video : 3 s 793 ms
Stream size : 284 MiB (4%)
Title : UKR
Language : Ukrainian
Service kind : Complete Main
Default : No
Forced : No

Audio #5
ID : 6
Format :
Format/Info : Digital Theater Systems
Codec ID : A_DTS
Duration : 1 h 28 min
Bit rate mode : Constant
Bit rate : 1 509 kb/s
Channel(s) : 6 channels
Channel positions : Front: L C R, Side: L R, LFE
Sampling rate : 48.0 kHz
Frame rate : 93.750 FPS (512 SPF)
Bit depth : 24 bits
Compression mode : Lossy
Stream size : 958 MiB (13%)
Language : English
Default : No
Forced : No

Audio #6
ID : 7
Format : AC-3
Format/Info : Audio Coding 3
Codec ID : A_AC3
Duration : 1 h 28 min
Bit rate mode : Constant
Bit rate : 224 kb/s
Channel(s) : 2 channels
Channel positions : Front: L R
Sampling rate : 48.0 kHz
Frame rate : 31.250 FPS (1536 SPF)
Bit depth : 16 bits
Compression mode : Lossy
Stream size : 142 MiB (2%)
Title : DD 2.0 @ 224 kbps – commentary
Language : English
Service kind : Complete Main
Default : No
Forced : No

Text
ID : 8
Format : UTF-8
Codec ID : S_TEXT/UTF8
Codec ID/Info : UTF-8 Plain Text
Language : English
Default : No
Forced : No

Menu
00:00:00.000 : en:Hillbilly Country
00:06:08.118 : en:Inferiority Complex
00:10:52.318 : en:Scary Story
00:18:11.215 : en:Captive
00:28:26.830 : en:We Got Ur Friend
00:37:20.655 : en:The Police
00:48:20.981 : en:Fingers
00:56:38.770 : en:Talking it Out
01:02:43.218 : en:Accidental Death Rampage
01:11:07.889 : en:Rescuing Allie
01:15:59.430 : en:Half Hillbilly
01:23:03.729 : en:Credits
Скріншоти









Подяка всім хто працював над створенням українських доріжок
Особиста подяка пану denixx за надану матеріальну допомогу на підтримку цього і майбутніх релізів.
Джерело:


 Трекер:    Зареєстрований   

Завантажити / скачати фільм українською



відео для новачків



 Зареєстрований:   2018-09-08 13:30
 Розмір:   7.44 GB 
 Оцінка фільму:   9.9/10 (Голосів: 17)
   
+380954897458 
Свій


З нами з: 02.06.17
Востаннє: 19.12.18
Повідомлень: 104

2018-09-08 17:02  
О! Це, мабуть, найкрутецька чорна комедія усіх часів, як би це претензійно не звучало! Фільм, який не має собі аналогів, бо балансує на грані між трешом та тонким гумором, але не перетинає цю грань. Та ще й чотири українські доріжки! Як же їх усі переслухати??? :-))
Quit_ua 
Новенький


З нами з: 13.08.18
Востаннє: 18.12.18
Повідомлень: 23

2018-09-08 21:30  
добра чорна комедія, варта уваги - однозначно)
romaxa11 
Новенький


З нами з: 05.09.15
Востаннє: 19.12.18
Повідомлень: 13

2018-09-09 23:22  
Нереально крутяцький фільмець. Можна ж знімати фільми без мільйонних бюджетів)
viciwit 
Новенький


З нами з: 04.03.18
Востаннє: 16.11.18
Повідомлень: 1

2018-09-21 19:04  
Дико плюсую. Це чудо дивився на німецькій мові і на русском язіьке. А тепер нарешті на рідні мові. Дякую und Dankeschön !!!!
[email protected] 
Поважний учасник


З нами з: 24.03.17
Востаннє: 19.12.18
Повідомлень: 185

2018-09-21 20:05  
Прикольний фільмєц.
Ваш часовий пояс: GMT + 2 Години

Нова тема   Відповісти