Відчуваючи Міннесоту / Feeling Minnesota (1996) 720p Ukr/Eng | Sub Eng

Нові коментарі

Нова тема   Відповісти
Автор Повідомлення
Anonymous 







2018-09-08 11:01  
Відчуваючи Міннесоту / Feeling Minnesota (1996) 720p Ukr/Eng | Sub Eng

Відчуваючи Міннесоту / Feeling Minnesota (1996) 720p Ukr/Eng | Sub Eng


Жанр: комедія, кримінальний, драма, романтичний
Країна: США



Кінокомпанія: Fine Line Features, Jersey Films, Minnesota U.S.A.
Режисер: Стівен Бейджелман / Steven Baigelman
Актори: Кіану Рівз / Keanu Reeves, Камерон Діаз / Cameron Diaz, Вінсент Д'Онофріо / Vincent D'Onofrio, Делрой Ліндо / Delroy Lindo, Ден Ейкройд / Dan Aykroyd, Кортні Лав / Courtney Love та інші

Сюжет:
Після двадцятирічної розлуки Джек повертається додому привітати брата з весіллям, але, не дивлячись на довгі роки, відносини між братами не змінилися: вони залишилися прохолодними. Їх зустріч, любов Джека до дружини брата, все це приведе до трагічного фіналу...


Тривалість: 01:38:46
Якість: 720p
Відео:
кодек:
розмір кадру: 1280х718
бітрейт: 4088 кб/с

Аудіо # 1:
мова: українська
переклад: багатоголосий закадровий ,
кодек: 2.0
бітрейт: 192 кб/с

Аудіо # 2:
мова: англійська
переклад: оригінал
кодек: 5.1
бітрейт: 384 кб/с

Субтитри:
мова: англійська
тип: програмні (м'які)
формат: *.srt
Info
General
Unique ID : 236925042324371286922800488322103655024 (0xB23E1A75B87172EB99DEF5C14DBE3A70)
Format :
Format version : Version 4 / Version 2
File size : 3.22 GiB
Duration : 1 h 38 min
Overall bit rate : 4 662 kb/s
Encoded date : UTC 2018-09-08 08:59:16
Writing application : v6.1.0 ('Old Devil') built on Mar 4 2013 09:10:42
Writing library : libebml v1.3.0 + v1.4.0

Video
ID : 1
Format : AVC
Format/Info : Advanced Video Codec
Format profile : [email protected]
Format settings : 2 Ref Frames
Format settings, CABAC : No
Format settings, ReFrames : 2 frames
Codec ID : V_MPEG4/ISO/AVC
Duration : 1 h 38 min
Bit rate : 3 993 kb/s
Width : 1 280 pixels
Height : 718 pixels
Display aspect ratio : 16:9
Frame rate mode : Constant
Frame rate : 23.976 (24000/1001) FPS
Color space : YUV
Chroma subsampling : 4:2:0
Bit depth : 8 bits
Scan type : Progressive
Bits/(Pixel*Frame) : 0.181
Stream size : 2.76 GiB (86%)
Language : English
Default : Yes
Forced : No
Color range : Limited
Color primaries : BT.709
Transfer characteristics : BT.709
Matrix coefficients : BT.709
Statistics Tags Issue : v16.0.0 ('Protest') 64-bit 2017-11-20 13:54:30 / v6.1.0 ('Old Devil') built on Mar 4 2013 09:10:42 2018-09-08 08:59:16
FromStats_BitRate : 4088167
FromStats_Duration : 01:38:45.926000000
FromStats_FrameCount : 142080
FromStats_StreamSize : 3028272183

Audio #1
ID : 2
Format : AC-3
Format/Info : Audio Coding 3
Codec ID : A_AC3
Duration : 1 h 38 min
Bit rate mode : Constant
Bit rate : 192 kb/s
Channel(s) : 2 channels
Channel positions : Front: L R
Sampling rate : 48.0 kHz
Frame rate : 31.250 FPS (1536 SPF)
Bit depth : 16 bits
Compression mode : Lossy
Delay relative to video : -42 ms
Stream size : 136 MiB (4%)
Title : UKR (K1, Inter)
Language : Ukrainian
Service kind : Complete Main
Default : Yes
Forced : Yes

Audio #2
ID : 3
Format : AC-3
Format/Info : Audio Coding 3
Codec ID : A_AC3
Duration : 1 h 38 min
Bit rate mode : Constant
Bit rate : 384 kb/s
Channel(s) : 6 channels
Channel positions : Front: L C R, Side: L R, LFE
Sampling rate : 48.0 kHz
Frame rate : 31.250 FPS (1536 SPF)
Bit depth : 16 bits
Compression mode : Lossy
Delay relative to video : -42 ms
Stream size : 272 MiB (8%)
Language : English
Service kind : Complete Main
Default : No
Forced : No
Statistics Tags Issue : v16.0.0 ('Protest') 64-bit 2017-11-20 13:54:30 / v6.1.0 ('Old Devil') built on Mar 4 2013 09:10:42 2018-09-08 08:59:16
FromStats_BitRate : 384000
FromStats_Duration : 01:38:45.952000000
FromStats_FrameCount : 185186
FromStats_StreamSize : 284445696

Text
ID : 4
Format : UTF-8
Codec ID : S_TEXT/UTF8
Codec ID/Info : UTF-8 Plain Text
Language : English
Default : Yes
Forced : No
Statistics Tags Issue : v16.0.0 ('Protest') 64-bit 2017-11-20 13:54:30 / v6.1.0 ('Old Devil') built on Mar 4 2013 09:10:42 2018-09-08 08:59:16
FromStats_BitRate : 48
FromStats_Duration : 01:37:31.712000000
FromStats_FrameCount : 1493
FromStats_StreamSize : 35247

Menu
00:00:00.000 : en:1
00:11:40.000 : en:2
00:25:12.000 : en:3
00:37:03.000 : en:4
00:49:41.000 : en:5
01:00:48.000 : en:6
01:11:58.000 : en:7
01:23:56.000 : en:8
01:35:03.000 : en:9
Скріншоти











За українську доріжку подяка п.: MAKAPOHHIK, olgaya, voin747
Особиста подяка пану denixx за надану матеріальну допомогу на підтримку цього і майбутніх релізів.
Джерело:


Срібний реліз (на рейтинг впливає 50% завантаженого)
 Трекер:    Зареєстрований   

Завантажити / скачати фільм українською



відео для новачків



 Зареєстрований:   2018-09-08 11:01
 Розмір:   3.22 GB 
 Оцінка фільму:   9.7/10 (Голосів: 3)
   
Інші релізи
   Відчуваючи Міннесоту / Feeling Minnesota (1996) patriot2305  3 / 0   1.28 GB   2014-03-12 13:46 
waldi-hurtom 
VIP


З нами з: 07.10.12
Востаннє: 12.12.18
Повідомлень: 842

2018-09-09 21:00  
Мабуть, найреалістичніший з кримінальних бойовиків, якщо не враховувати останні 15 хвилин, коли почалась комедія. 9 з 10, дякую за реліз!
Ваш часовий пояс: GMT + 2 Години

Нова тема   Відповісти