Протест юностi / Буремна юність / Youth in Revolt (2009) 1080p 2xUkr/Eng | Sub Eng

Нові коментарі

Нова тема   Відповісти
Автор Повідомлення
Anonymous 







2018-09-08 11:34  
Протест юностi / Буремна юність / Youth in Revolt (2009) 1080p 2xUkr/Eng | Sub Eng

Протест юностi / Буремна юність / Youth in Revolt (2009) 1080p 2xUkr/Eng | Sub Eng


Жанр: драма, мелодрама, комедія
Країна: США



Кінокомпанія: David Permut Productions, Dimension Films
Режисер: Міґель Артета / Miguel Arteta
Актори: Майкл Сера, Порша Даблдей, Джин Смарт, Зак Ґаліфіанакіс, Ерік Кнудсен, Адхір Кальян, Стів Бушемі, Фред Віллард, Ері Грейнор, Рей Ліотта, Джастін Лонґ, Руні Мара

Сюжет:
Тоді, коли батьки Ніка знаходяться на межі розлучення, усі думки юнака зайняті тим, як би швидше стати чоловіком з дівчинкою своєї мрії Шиною Сандерс.


Тривалість: 01:29:27
Якість: 1080p
Відео:
кодек:
розмір кадру: 1920х1040
бітрейт: 8989 кб/с

Аудіо # 1:
мова: українська
переклад: багатоголосий закадровий
кодек: 2.0
бітрейт: 192 кб/с

Аудіо # 2:
мова: українська
переклад: багатоголосий закадровий
кодек: 2.0
бітрейт: 192 кб/с

Аудіо # 3:
мова: англійська
переклад: оригінал
кодек: 5.1
бітрейт: 1509 кб/с

Субтитри:
мова: англійська
тип: програмні (м'які)
формат: *.srt
Info
General
Unique ID : 213792292468860396125246801243001379167 (0xA0D6E5D5DC33FCE1B37E104B5A8CD95F)
Format :
Format version : Version 4 / Version 2
File size : 6.80 GiB
Duration : 1 h 29 min
Overall bit rate : 10.9 Mb/s
Encoded date : UTC 2018-09-08 08:25:44
Writing application : v6.1.0 ('Old Devil') built on Mar 4 2013 09:10:42
Writing library : libebml v1.3.0 + v1.4.0

Video
ID : 1
Format : AVC
Format/Info : Advanced Video Codec
Format profile : [email protected]
Format settings : CABAC / 4 Ref Frames
Format settings, CABAC : Yes
Format settings, ReFrames : 4 frames
Codec ID : V_MPEG4/ISO/AVC
Duration : 1 h 29 min
Bit rate : 8 989 kb/s
Width : 1 920 pixels
Height : 1 040 pixels
Display aspect ratio : 1.85:1
Frame rate mode : Constant
Frame rate : 23.976 (24000/1001) FPS
Color space : YUV
Chroma subsampling : 4:2:0
Bit depth : 8 bits
Scan type : Progressive
Bits/(Pixel*Frame) : 0.188
Stream size : 5.48 GiB (81%)
Writing library : core 96 r1602 69588a7
Encoding settings : cabac=1 / ref=4 / deblock=1:0:0 / analyse=0x3:0x113 / me=umh / subme=7 / psy=1 / psy_rd=1.00:0.20 / mixed_ref=1 / me_range=16 / chroma_me=1 / trellis=1 / 8x8dct=1 / cqm=0 / deadzone=21,11 / fast_pskip=1 / chroma_qp_offset=-3 / threads=12 / sliced_threads=0 / nr=0 / decimate=1 / interlaced=0 / constrained_intra=0 / bframes=3 / b_pyramid=2 / b_adapt=1 / b_bias=0 / direct=3 / weightb=1 / weightp=0 / keyint=250 / keyint_min=25 / scenecut=40 / intra_refresh=0 / rc_lookahead=40 / rc=2pass / mbtree=1 / bitrate=8989 / ratetol=1.0 / qcomp=0.60 / qpmin=10 / qpmax=51 / qpstep=4 / cplxblur=20.0 / qblur=0.5 / ip_ratio=1.40 / aq=1:1.00
Language : English
Default : Yes
Forced : No

Audio #1
ID : 2
Format : AC-3
Format/Info : Audio Coding 3
Codec ID : A_AC3
Duration : 1 h 29 min
Bit rate mode : Constant
Bit rate : 192 kb/s
Channel(s) : 2 channels
Channel positions : Front: L R
Sampling rate : 48.0 kHz
Frame rate : 31.250 FPS (1536 SPF)
Bit depth : 16 bits
Compression mode : Lossy
Stream size : 123 MiB (2%)
Title : UKR (K1)
Language : Ukrainian
Service kind : Complete Main
Default : Yes
Forced : Yes

Audio #2
ID : 3
Format : AC-3
Format/Info : Audio Coding 3
Codec ID : A_AC3
Duration : 1 h 29 min
Bit rate mode : Constant
Bit rate : 192 kb/s
Channel(s) : 2 channels
Channel positions : Front: L R
Sampling rate : 48.0 kHz
Frame rate : 31.250 FPS (1536 SPF)
Bit depth : 16 bits
Compression mode : Lossy
Stream size : 123 MiB (2%)
Title : UKR (NLO-TV)
Language : Ukrainian
Service kind : Complete Main
Default : No
Forced : No

Audio #3
ID : 4
Format :
Format/Info : Digital Theater Systems
Codec ID : A_DTS
Duration : 1 h 29 min
Bit rate mode : Constant
Bit rate : 1 509 kb/s
Channel(s) : 6 channels
Channel positions : Front: L C R, Side: L R, LFE
Sampling rate : 48.0 kHz
Frame rate : 93.750 FPS (512 SPF)
Bit depth : 24 bits
Compression mode : Lossy
Stream size : 966 MiB (14%)
Language : English
Default : No
Forced : No

Text
ID : 5
Format : UTF-8
Codec ID : S_TEXT/UTF8
Codec ID/Info : UTF-8 Plain Text
Language : English
Default : No
Forced : No

Menu
00:00:00.000 : en:00:00:00.000
00:08:35.765 : en:00:08:35.765
00:14:07.680 : en:00:14:07.680
00:21:30.748 : en:00:21:30.748
00:26:27.795 : en:00:26:27.795
00:30:23.447 : en:00:30:23.447
00:33:53.240 : en:00:33:53.240
00:41:18.267 : en:00:41:18.267
00:46:29.245 : en:00:46:29.245
00:54:53.957 : en:00:54:53.957
00:58:07.984 : en:00:58:07.984
01:01:14.296 : en:01:01:14.296
01:08:10.962 : en:01:08:10.962
01:14:17.453 : en:01:14:17.453
01:17:53.961 : en:01:17:53.961
01:22:28.735 : en:01:22:28.735
Скріншоти









За українську доріжку №1 подяка п. Sando7
За українську доріжку №2 подяка п. Arsenfpu
Особиста подяка пану denixx за надану матеріальну допомогу на підтримку цього і майбутніх релізів.
Джерело:


 Трекер:    Зареєстрований   

Завантажити / скачати фільм українською



відео для новачків



 Зареєстрований:   2018-09-08 11:34
 Розмір:   6.8 GB 
 Оцінка фільму:   10/10 (Голосів: 5)
   
Інші релізи
+380954897458 
Свій


З нами з: 02.06.17
Востаннє: 20.10.18
Повідомлень: 73

2018-09-08 17:50  
Тільки-но натрапив на це кіно, проглядаючи фільмографію Портії Даблдей, героїні пречудового серіалу "Пан Робот", гоп, а воно вже тут! Дуже цікаво... :-))
Custo 12 
Свій


З нами з: 08.11.16
Востаннє: 10.10.18
Повідомлень: 66

2018-09-08 18:43  
Немає імені Портія,воно читається як Порша. Не треба дякувати, це просто моя робота.
VitNi 
Свій


З нами з: 05.05.12
Востаннє: 21.10.18
Повідомлень: 97

2018-09-09 18:46  
хороший фільм... Happy
+380954897458 
Свій


З нами з: 02.06.17
Востаннє: 20.10.18
Повідомлень: 73

2018-09-10 18:11  
Custo 12
Насправді ми вкрай рідко вимовляємо їх імена так, як вимовляють вони. І нема такого актора, як Стів Бушемі, є Стів Бусемі.

Custo 12 
Свій


З нами з: 08.11.16
Востаннє: 10.10.18
Повідомлень: 66

2018-09-11 08:52  
Фільм чудесний!
Ваш часовий пояс: GMT + 2 Години

Нова тема   Відповісти