Американець / The American (2010) 1080p Ukr/Eng | Sub Eng

Нові коментарі

Нова тема   Відповісти
Автор Повідомлення
Anonymous 







2018-09-08 10:11  
Американець / The American (2010) 1080p Ukr/Eng | Sub Eng

Американець / The American (2010) 1080p Ukr/Eng | Sub Eng


Жанр: драма, кримінальний
Країна: США



Кінокомпанія: Focus Features, Goldcrest Post Production London, Greenlit Rights
Режисер: Антон Корбін
Актори: Джордж Клуні, Іріна Бйорклунд, Ларс Х’єлм, Джоан Лейсен, Паоло Боначеллі

Сюжет:
Після провалу чергової операції і загибелі коханки професійний кілер Джек вирішує завершити свою кар'єру. Залишається остання справа, замовлена йому таємничою жінкою, для виконання якої він таємно їде до Італії і поселяється в маленькому містечку, що загубилося в мальовничих горах. Тут несподівано для себе самого Джек зближується з місцевим священиком і закохується в красуню Клару. Вперше в житті розкривається серце людини, змушеної критися все своє життя. Джек спокійний і щасливий настільки, що втрачає пильність ...


Тривалість: 01:44:56
Якість: 1080p
Відео:
кодек:
розмір кадру: 1920х816
бітрейт: 9325 кб/с

Аудіо # 1:
мова: українська
переклад: професійний дубльований (кінотеатральний дубляж)
кодек: 2.0
бітрейт: 192 кб/с

Аудіо # 2:
мова: англійська
переклад: оригінал
кодек: 5.1
бітрейт: 1509 кб/с

Субтитри:
мова: англійська
тип: програмні (м'які)
формат: *.srt
Info
General
Unique ID : 196412888952603801378781156603074584709 (0x93C3BF1605049D5DA6D4DE4C677E2085)
Format :
Format version : Version 4 / Version 2
File size : 8.08 GiB
Duration : 1 h 44 min
Overall bit rate : 11.0 Mb/s
Encoded date : UTC 2018-09-08 07:02:12
Writing application : v6.1.0 ('Old Devil') built on Mar 4 2013 09:10:42
Writing library : libebml v1.3.0 + v1.4.0

Video
ID : 1
Format : AVC
Format/Info : Advanced Video Codec
Format profile : [email protected]
Format settings : CABAC / 5 Ref Frames
Format settings, CABAC : Yes
Format settings, ReFrames : 5 frames
Codec ID : V_MPEG4/ISO/AVC
Duration : 1 h 44 min
Bit rate : 9 325 kb/s
Width : 1 920 pixels
Height : 816 pixels
Display aspect ratio : 2.35:1
Frame rate mode : Constant
Frame rate : 23.976 (24000/1001) FPS
Color space : YUV
Chroma subsampling : 4:2:0
Bit depth : 8 bits
Scan type : Progressive
Bits/(Pixel*Frame) : 0.248
Stream size : 6.68 GiB (83%)
Writing library : core 110 r1820 fdcf2ae
Encoding settings : cabac=1 / ref=5 / deblock=1:0:0 / analyse=0x3:0x113 / me=umh / subme=8 / psy=1 / psy_rd=1.00:0.20 / mixed_ref=1 / me_range=16 / chroma_me=1 / trellis=1 / 8x8dct=1 / cqm=0 / deadzone=21,11 / fast_pskip=1 / chroma_qp_offset=-3 / threads=12 / sliced_threads=0 / nr=0 / decimate=1 / interlaced=0 / constrained_intra=0 / bframes=3 / b_pyramid=2 / b_adapt=1 / b_bias=0 / direct=3 / weightb=1 / open_gop=0 / weightp=2 / keyint=250 / keyint_min=23 / scenecut=40 / intra_refresh=0 / rc_lookahead=40 / rc=2pass / mbtree=1 / bitrate=9325 / ratetol=1.0 / qcomp=0.60 / qpmin=0 / qpmax=51 / qpstep=4 / cplxblur=20.0 / qblur=0.5 / ip_ratio=1.40 / aq=1:1.00
Language : English
Default : Yes
Forced : No

Audio #1
ID : 2
Format : AC-3
Format/Info : Audio Coding 3
Codec ID : A_AC3
Duration : 1 h 44 min
Bit rate mode : Constant
Bit rate : 192 kb/s
Channel(s) : 2 channels
Channel positions : Front: L R
Sampling rate : 48.0 kHz
Frame rate : 31.250 FPS (1536 SPF)
Bit depth : 16 bits
Compression mode : Lossy
Stream size : 144 MiB (2%)
Title : UKR (1+1) - Дубльований переклад
Language : Ukrainian
Service kind : Complete Main
Default : Yes
Forced : Yes

Audio #2
ID : 3
Format :
Format/Info : Digital Theater Systems
Codec ID : A_DTS
Duration : 1 h 44 min
Bit rate mode : Constant
Bit rate : 1 509 kb/s
Channel(s) : 6 channels
Channel positions : Front: L C R, Side: L R, LFE
Sampling rate : 48.0 kHz
Frame rate : 93.750 FPS (512 SPF)
Bit depth : 24 bits
Compression mode : Lossy
Stream size : 1.11 GiB (14%)
Language : English
Default : No
Forced : No

Text
ID : 4
Format : UTF-8
Codec ID : S_TEXT/UTF8
Codec ID/Info : UTF-8 Plain Text
Title : ENG
Language : English
Default : Yes
Forced : No

Menu
00:00:00.000 : en:Chapter 1
00:05:03.470 : en:Chapter 2
00:09:41.372 : en:Chapter 3
00:15:02.360 : en:Chapter 4
00:19:25.831 : en:Chapter 5
00:24:21.835 : en:Chapter 6
00:29:22.719 : en:Chapter 7
00:33:35.472 : en:Chapter 8
00:36:22.639 : en:Chapter 9
00:41:25.274 : en:Chapter 10
00:45:28.434 : en:Chapter 11
00:49:15.911 : en:Chapter 12
00:53:34.545 : en:Chapter 13
00:59:08.170 : en:Chapter 14
01:06:55.553 : en:Chapter 15
01:13:44.045 : en:Chapter 16
Скріншоти










Зв українську доріжку подяка п.: xslim, Arsenfpu
Особиста подяка пану denixx за надану матеріальну допомогу на підтримку цього і майбутніх релізів.
Джерело:


 Трекер:    Зареєстрований   

Завантажити / скачати фільм українською



відео для новачків



 Зареєстрований:   2018-09-08 10:11
 Розмір:   8.08 GB 
 Оцінка фільму:   8.3/10 (Голосів: 10)
   
Інші релізи
   Американець / The American (2010) Ukr/Eng Arsenfpu  6 / 0   1.8 GB   2016-11-22 19:58 
   Американець / The American (2010) Ukr/Eng | sub Eng JACKUS  3 / 0   2.18 GB   2011-01-19 17:42 
waldi-hurtom 
VIP


З нами з: 07.10.12
Востаннє: 21.10.18
Повідомлень: 815

2018-09-08 21:33  
Найцікавіше - крайовиди Італії, трішки жіночого тіла. Перестаркуватий Клуні викликає хіба подив з гарної фізичної форми, можна позаздріти. 6 з 10.
movic 
Частий відвідувач


З нами з: 18.03.08
Востаннє: 20.10.18
Повідомлень: 31

2018-09-08 22:06  
waldi-hurtom написано:
Перестаркуватий Клуні

"Вот щас обідно било" (с). Йому тут всього 49, мій одноліток...

Menestr 
Новенький


З нами з: 29.04.09
Востаннє: 20.10.18
Повідомлень: 22

2018-09-18 02:54  
Хороше кіно, зі змістом і не відірване від реальності, як це часто буває у сучасних фільмах. Нагадує "Залягти на дно у Брюгге"
Ваш часовий пояс: GMT + 2 Години

Нова тема   Відповісти