Здичавіла / Wildling (2018)

Нові коментарі

Нова тема   Відповісти
Автор Повідомлення
Anonymous 







2018-09-08 08:43  
Здичавіла / Wildling (2018)



Жанр: драма, жахи, трилер, фентезі
Країна: США



Кінокомпанія: Maven Pictures, Film i Väst, Filmgate Films, ARRI Media Productions, Night Fox Entertainment, Studio Mao
Режисер: Фрідріх Боем / Fritz Böhm
Актори: Лів Тайлер / Liv Tyler, Бред Дуріф / Brad Dourif, Бел Паулі / Bel Powley, Джеймс ЛеГрос / James Le Gros, Майк Фейст / Mike Faist, Трой Раптеш / Troy Ruptash, Шарлотта Уббен / Charlotte Ubben, Коллін Келлі-Сорделет / Collin Kelly-Sordelet та інші

Сюжет:
Страшна казка про 16-річну Анну, яка все дитинство провела в чотирьох стінах. Її загадковий вихователь залякав дівчинку монстром, що нишпорить зовні і пожирає дітей. Але варто звільненій Анні дізнатися, що це брехня, як починають відбуватися страшні події.
Офіційний український трейлер:


Рейтинг MPAA: R - особам до 17 років обов'язкова присутність батьків або дорослого опікуна
Вікова категорія: 16+

Тривалість: 01:32:21
Якість:

Відео:
кодек:
розмір кадру: 720х400
бітрейт: 1866 кб/с

Аудіо:
мова: українська
переклад: багатоголосий закадровий | студія Tretyakoff production
кодек: 2.0 [стерео]
бітрейт: 192 кб/с
Info
Код:
General
Complete name               : Wildling (2018) [Ukr] [Hurtom].avi
Format                      : AVI
Format/Info                 : Audio Video Interleave
File size                   : 1.33 GiB
Duration                    : 1 h 32 min
Overall bit rate            : 2 068 kb/s
Movie name                  : Здичавіла / Wildling (2018) [Ukr] [Hurtom]
Genre                       : драма, жахи, трилер, фентезі
Recorded date               : 08.09.2018
Writing application         : VirtualDubModUkr 1.5.10.2 (build 2542/release)
Writing library             : VirtualDubMod build 2542/release
Comment                     : https://toloka.to/t94931

Video
ID                          : 0
Format                      : MPEG-4 Visual
Format profile              : Advanced [email protected]
Format settings             : BVOP1 / Custom Matrix
Format settings, BVOP       : 1
Format settings, QPel       : No
Format settings, GMC        : No warppoints
Format settings, Matrix     : Custom
Codec ID                    :
Codec ID/Hint               :
Duration                    : 1 h 32 min
Bit rate                    : 1 866 kb/s
Width                       : 720 pixels
Height                      : 400 pixels
Display aspect ratio        : 16:9
Frame rate                  : 23.976 (24000/1001) FPS
Color space                 : YUV
Chroma subsampling          : 4:2:0
Bit depth                   : 8 bits
Scan type                   : Progressive
Compression mode            : Lossy
Bits/(Pixel*Frame)          : 0.270
Stream size                 : 1.20 GiB (90%)
Writing library             : 73

Audio
ID                          : 1
Format                      : AC-3
Format/Info                 : Audio Coding 3
Commercial name             : Dolby Digital
Codec ID                    : 2000
Duration                    : 1 h 32 min
Bit rate mode               : Constant
Bit rate                    : 192 kb/s
Channel(s)                  : 2 channels
Channel layout              : L R
Sampling rate               : 48.0 kHz
Frame rate                  : 31.250 FPS (1536 SPF)
Bit depth                   : 16 bits
Compression mode            : Lossy
Stream size                 : 127 MiB (9%)
Alignment                   : Split accross interleaves
Interleave, duration        : 42  ms (1.00 video frame)
Interleave, preload duratio : 500  ms
Title                       : UKR MVO [Tretyakoff production, stereo]
Service kind                : Complete Main


Джерело: &
Подяка AngryBirdsUA та Hanway'ю за доріжку та Lazzarus'у за постер.


 Трекер:    Зареєстрований   

Завантажити / скачати фільм українською



відео для новачків



 Зареєстрований:   2018-09-08 09:04
 Розмір:   1.33 GB 
 Оцінка фільму:   8.3/10 (Голосів: 28)
   
Інші релізи
   Здичавіла / Wildling (2018) Remux 1080p Ukr/Eng | Sub Eng staf777  0 / 0   17.47 GB   2018-09-10 15:18 
   Здичавіла / Wildling (2018) AVC Ukr/Eng | Sub Eng 11FrYkT  4 / 0   1.41 GB   2018-09-08 08:09 
   Здичавіла / Wildling (2018) 720p Ukr/Eng | Sub Eng 11FrYkT  4 / 0   4.21 GB   2018-09-08 08:08 
   Здичавіла / Wildling (2018) 1080p Ukr/Eng | Sub Eng staf777  5 / 0   4.58 GB   2018-07-22 18:57 
sania2011 
Поважний учасник


З нами з: 25.02.11
Востаннє: 14.11.19
Повідомлень: 190

2018-09-08 15:07  
Трішки дивне кіно, особливо друга половина фільму...
DeWitt_1912 
Свій


З нами з: 13.09.16
Востаннє: 14.11.19
Повідомлень: 96

2018-09-09 12:39  
Загалом - не погано. Фільм не "культовий", але цілком достойний. Тепер маємо окреме кіно про ругару Happy
hetzendorf 
Забанено
Забанено


З нами з: 23.07.15
Востаннє: 02.11.19
Повідомлень: 2572

2019-03-01 21:40  
^_^ Класно так на середині шаблон тріскає ^_^ Нормальний жахливчик, і на одну з класичних тем, і свіжо.
9/10

Ваш часовий пояс: GMT + 2 Години

Нова тема   Відповісти