Оселя зла. Колекція / Resident Evil. Collection (2002-2016) AVC Ukr/Eng | Sub Ukr/Eng

Нові коментарі

Нова тема   Відповісти
Автор Повідомлення
staf777 
Відео Гуртом - підтримка та поширення
Відео Гуртом - підтримка та поширення


З нами з: 16.11.16
Востаннє: 15.11.19
Повідомлень: 3023

2018-09-08 07:31  
Оселя зла. Колекція / Resident Evil. Collection (2002-2016) AVC Ukr/Eng | Sub Ukr/Eng

Оселя зла. Колекція / Resident Evil. Collection (2002-2016) AVC Ukr/Eng | Sub Ukr/Eng


Жанр: бойовик, жахи, фантастика
Кіностудія / кінокомпанія: Constantin Film Produktion GmbH, Davis-Films
Режисер: Пол Андерсон / Paul Anderson, Александр Вітт /Alexander Witt, Рассел Малкей / Russell Mulcahy
Актори: Мілла Йовович / Milla Jovovich, Мішель Родріґез / Michelle Rodriguez, Одед Фехр / Oded Fehr та інші
Тривалість: 01:40:31 | 01:33:48 | 01:34:06 | 01:36:52 | 01:35:37 | 01:46:40
Оселя (Обитель) Зла / Resident Evil (2002) AVC 2xUkr/Eng | Sub Eng

Оселя (Обитель) Зла / Resident Evil (2002) AVC 2xUkr/Eng | Sub Eng

Оселя зла. Колекція / Resident Evil. Collection (2002-2016) AVC Ukr/Eng | Sub Ukr/Eng


Жанр: бойовик, жахи, фантастика
Країна: Франція, Німеччина, Великобританія



Кіностудія / кінокомпанія: Constantin Film Produktion GmbH, Davis-Films
Режисер: Пол Андерсон / Paul Anderson
Актори: Мілла Йовович / Milla Jovovich, Мішель Родріґез / Michelle Rodriguez, Ерік Мебіас / Eric Mabius, Джеймс Пьюрфой /Джеймс Пьюрфой, Мартін Крюз / Martin Crewes, Колін Селмон / Colin Salmon, Райан МакКласкі / Ryan McCluskey, Оскар Пірс / Oscar Pearce, Індра Ове / Indra Ové, Анна Болт / Anna Bolt та інші

Сюжет: Сюжет фiльму заснований на комп'ютернiй грi, яка стала одним з перших бестселерiв цього рiзновиду розваг i дочекалася чотирьох продовжень, кожне з яких продавалося мiльйонними тиражами, забезпечивши серii популярнiсть на всiх континентах. Головнi героїнi стрiчки, Елiс та Рейн, очолюють загiн командос, що повинен за три години знищити експериментальний "Т-вiрус", здатний повертати до життя мертвих, перетворюючи їх на жахливих мутантiв. Завдання виявляється надзвичайно складним, оскiльки поширенням пекельної зарази керує суперкомп'ютер "Червона королева", а на смiливцiв полює смертельно небезпечна iстота.

Тривалість: 01:40:31
Якість: AVC
Відео:
кодек:
розмір кадру: 1024x556
бітрейт: 3000 кб/с

Аудіо # 1:
мова: українська
переклад: багатоголосий закадровий, озвучений ТакТребаПродакш для
кодек: 2.0
бітрейт: 192 кб/с
ролі озвучили: Олег Стальчук, Дмитро Гаврилов і два жіночих

Аудіо # 2:
мова: українська
переклад: двоголосий закадровий, від
кодек: 5.1
бітрейт: 448 кб/с
ролі озвучили: Лариса Руснак і Олександр Ігнатуша

Аудіо # 3:
мова: англійська
переклад: оригінал
кодек: АС3 5.1
бітрейт: 448 кб/с

Субтитри:
мова: англійська
тип: програмні (м'які)
формат: *.srt

Субтитри:
мова: англійська
тип: програмні (м'які)
формат: *.srt
Info
Код:

General
Unique ID                   : 200925451521431524782424242024752328088 (0x9728D5991B2F6522D95A5B03AA1FAD98)
Complete name               : H:\Resident Evil (2002) AVC [2xUA][ENG][Hurtom].
Format                      :
Format version              : Version 4 / Version 2
File size                   : 2.87 GiB
Duration                    : 1 h 40 min
Overall bit rate            : 4 088 kb/s
Movie name                  : Resident Evil (2002) AVC [2xUA][ENG][Hurtom]
Encoded date                : UTC 2018-09-10 19:04:59
Writing application         : v24.0.0 ('Beyond The Pale') 64-bit
Writing library             : libebml v1.3.6 + v1.4.9
Cover                       : Yes
Attachments                 : cover.jpg

Video
ID                          : 1
Format                      : AVC
Format/Info                 : Advanced Video Codec
Format profile              : [email protected]
Format settings             : CABAC / 8 Ref Frames
Format settings, CABAC      : Yes
Format settings, ReFrames   : 8 frames
Codec ID                    : V_MPEG4/ISO/AVC
Duration                    : 1 h 40 min
Bit rate                    : 3 000 kb/s
Width                       : 1 024 pixels
Height                      : 556 pixels
Display aspect ratio        : 1.85:1
Frame rate mode             : Constant
Frame rate                  : 23.976 (24000/1001) FPS
Color space                 : YUV
Chroma subsampling          : 4:2:0
Bit depth                   : 8 bits
Scan type                   : Progressive
Bits/(Pixel*Frame)          : 0.220
Stream size                 : 2.10 GiB (73%)
Writing library             : core 129 r2245 bc13772
Encoding settings           : cabac=1 / ref=8 / deblock=1:-2:-2 / analyse=0x3:0x133 / me=umh / subme=11 / psy=1 / psy_rd=1.00:0.00 / mixed_ref=1 / me_range=48 / chroma_me=1 / trellis=2 / 8x8dct=1 / cqm=0 / deadzone=21,11 / fast_pskip=0 / chroma_qp_offset=-2 / threads=3 / lookahead_threads=1 / sliced_threads=0 / nr=0 / decimate=0 / interlaced=0 / bluray_compat=0 / constrained_intra=0 / bframes=8 / b_pyramid=2 / b_adapt=2 / b_bias=0 / direct=3 / weightb=1 / open_gop=0 / weightp=2 / keyint=240 / keyint_min=23 / scenecut=40 / intra_refresh=0 / rc_lookahead=40 / rc=2pass / mbtree=1 / bitrate=3000 / ratetol=1.0 / qcomp=0.60 / qpmin=10 / qpmax=51 / qpstep=4 / cplxblur=20.0 / qblur=0.5 / ip_ratio=1.40 / aq=2:1.00
Language                    : English
Default                     : No
Forced                      : No

Audio #1
ID                          : 2
Format                      : AC-3
Format/Info                 : Audio Coding 3
Codec ID                    : A_AC3
Duration                    : 1 h 40 min
Bit rate mode               : Constant
Bit rate                    : 192 kb/s
Channel(s)                  : 2 channels
Channel positions           : Front: L R
Sampling rate               : 48.0 kHz
Frame rate                  : 31.250 FPS (1536 SPF)
Bit depth                   : 16 bits
Compression mode            : Lossy
Stream size                 : 138 MiB (5%)
Title                       : Ukrainian / ICTV
Language                    : Ukrainian
Service kind                : Complete Main
Default                     : Yes
Forced                      : Yes

Audio #2
ID                          : 3
Format                      : AC-3
Format/Info                 : Audio Coding 3
Codec ID                    : A_AC3
Duration                    : 1 h 40 min
Bit rate mode               : Constant
Bit rate                    : 448 kb/s
Channel(s)                  : 6 channels
Channel positions           : Front: L C R, Side: L R, LFE
Sampling rate               : 48.0 kHz
Frame rate                  : 31.250 FPS (1536 SPF)
Bit depth                   : 16 bits
Compression mode            : Lossy
Stream size                 : 322 MiB (11%)
Title                       : Ukrainian / 1+1
Language                    : Ukrainian
Service kind                : Complete Main
Default                     : No
Forced                      : No

Audio #3
ID                          : 4
Format                      : AC-3
Format/Info                 : Audio Coding 3
Codec ID                    : A_AC3
Duration                    : 1 h 40 min
Bit rate mode               : Constant
Bit rate                    : 448 kb/s
Channel(s)                  : 6 channels
Channel positions           : Front: L C R, Side: L R, LFE
Sampling rate               : 48.0 kHz
Frame rate                  : 31.250 FPS (1536 SPF)
Bit depth                   : 16 bits
Compression mode            : Lossy
Stream size                 : 322 MiB (11%)
Language                    : English
Service kind                : Complete Main
Default                     : No
Forced                      : No

Text
ID                          : 5
Format                      : UTF-8
Codec ID                    : S_TEXT/UTF8
Codec ID/Info               : UTF-8 Plain Text
Duration                    : 1 h 28 min
Bit rate                    : 32 b/s
Count of elements           : 666
Stream size                 : 20.9 KiB (0%)
Language                    : English
Default                     : No
Forced                      : No

Menu
00:00:00.000                : en:Chapter 01
00:08:22.585                : en:Chapter 02
00:11:00.409                : en:Chapter 03
00:19:09.940                : en:Chapter 04
00:23:49.010                : en:Chapter 05
00:29:22.469                : en:Chapter 06
00:37:51.227                : en:Chapter 07
00:41:14.555                : en:Chapter 08
00:47:11.828                : en:Chapter 09
00:52:16.591                : en:Chapter 10
01:00:47.977                : en:Chapter 11
01:08:35.694                : en:Chapter 12
01:12:05.321                : en:Chapter 13
01:18:33.667                : en:Chapter 14
01:24:22.348                : en:Chapter 15
01:30:16.160                : en:Chapter 16
Світлини






Джерело: &
Особиста оцінка: 8 - мені сподобалося
Обитель зла 2. Апокаліпсис / Resident Evil: Apocalypse (2004) AVC Ukr/Eng | Sub Eng

Обитель зла 2. Апокаліпсис / Resident Evil: Apocalypse (2004) AVC Ukr/Eng | Sub Eng

Оселя зла. Колекція / Resident Evil. Collection (2002-2016) AVC Ukr/Eng | Sub Ukr/Eng

«Вона пройшла через катакомби, що кишать зомбі. Тепер на її шляху ціле місто ... »



Жанр: фантастика, бойовик, жахи
Країна: Німеччина, Канада, Франція, Великобританія



Кіностудія / кінокомпанія: Constantin Film
Режисер: Александр Вітт /Alexander Witt
Актори: Мілла Йовович / Milla Jovovich, Сієнна Гіллорі /Sienna Guillory/, Одед Фер /Oded Fehr/, Томас Кречманн /Thomas Kretschmann/, Софі Вавасо /Sophie Vavasseur/, Разаак Адоті /Razaaq Adoti/, Джаред Харріс /Jared Harris/, Майк Еппс /Mike Epps/, Сандрін Холт /Sandrine Holt/, Меттью Дж. Тейлор /Matthew G. Taylor

Сюжет: Події фільму розгортаються на вулицях Ракун-сіті, міста, що контролюється могутньою корпорацією «Амбрелла». Жахливий вiрус виривається за межi пiдземних лабораторiй. Кiлькiсть кровожерливих зомбi збiльшується у геометричнiй прогресiї, i могутня корпорацiя "Амбрелла", яка й створила пекельну заразу, блокує усi виходи з мiста i намагається знищити докази своєї причетностi до катастрофи. Пiдступнi магнати випускають у мiсто iдеальну зброю - монстра на iм'я Немезида. Єдина, хто може його зупинити, - Елiс, яка завдяки експериментам вчених з "Амбрелли" набула надлюдської сили та спритностi.

Тривалість: 01:33:48
Якість: AVC
Відео:
кодек:
розмір кадру: 1024x428
бітрейт: 2569 кб/с

Аудіо # 1:
мова: українська
переклад: двоголосий закадровий записаний з також той же переклад транслювався по
кодек: 2.0
бітрейт: 192 кб/с
ролі озвучили: Юрій Гребельник та жіночий

Аудіо # 2:
мова: англійська
переклад: оригінал
кодек: АС3 5.1
бітрейт: 448 кб/с

Субтитри:
мова: англійська
тип: програмні (м'які)
формат: *.srt
Info
Код:

General
Unique ID                   : 181703286225806556960831021944812557454 (0x88B2C7ADA8D8C8AC41A719ABD59B548E)
Complete name               : H:\Resident Evil Apocalypse (2004) AVC [UKR_ENG] [Hurtom].
Format                      :
Format version              : Version 4 / Version 2
File size                   : 2.10 GiB
Duration                    : 1 h 33 min
Overall bit rate            : 3 209 kb/s
Movie name                  : Resident Evil: Apocalypse (2004) AVC [UKR_ENG] [Hurtom]
Encoded date                : UTC 2018-09-10 19:28:54
Writing application         : v24.0.0 ('Beyond The Pale') 64-bit
Writing library             : libebml v1.3.6 + v1.4.9
Cover                       : Yes
Attachments                 : cover.jpg

Video
ID                          : 1
Format                      : AVC
Format/Info                 : Advanced Video Codec
Format profile              : [email protected]
Format settings             : CABAC / 8 Ref Frames
Format settings, CABAC      : Yes
Format settings, ReFrames   : 8 frames
Codec ID                    : V_MPEG4/ISO/AVC
Duration                    : 1 h 33 min
Bit rate                    : 2 569 kb/s
Width                       : 1 024 pixels
Height                      : 428 pixels
Display aspect ratio        : 2.40:1
Frame rate mode             : Constant
Frame rate                  : 23.976 (24000/1001) FPS
Color space                 : YUV
Chroma subsampling          : 4:2:0
Bit depth                   : 8 bits
Scan type                   : Progressive
Bits/(Pixel*Frame)          : 0.244
Stream size                 : 1.68 GiB (80%)
Writing library             : core 129 r2245 bc13772
Encoding settings           : cabac=1 / ref=8 / deblock=1:-2:-2 / analyse=0x3:0x133 / me=umh / subme=11 / psy=1 / psy_rd=1.00:0.00 / mixed_ref=1 / me_range=48 / chroma_me=1 / trellis=2 / 8x8dct=1 / cqm=0 / deadzone=21,11 / fast_pskip=0 / chroma_qp_offset=-2 / threads=3 / lookahead_threads=1 / sliced_threads=0 / nr=0 / decimate=0 / interlaced=0 / bluray_compat=0 / constrained_intra=0 / bframes=8 / b_pyramid=2 / b_adapt=2 / b_bias=0 / direct=3 / weightb=1 / open_gop=0 / weightp=2 / keyint=240 / keyint_min=23 / scenecut=40 / intra_refresh=0 / rc_lookahead=40 / rc=2pass / mbtree=1 / bitrate=2569 / ratetol=1.0 / qcomp=0.60 / qpmin=10 / qpmax=51 / qpstep=4 / cplxblur=20.0 / qblur=0.5 / ip_ratio=1.40 / aq=2:1.00
Language                    : English
Default                     : No
Forced                      : No

Audio #1
ID                          : 2
Format                      : AC-3
Format/Info                 : Audio Coding 3
Codec ID                    : A_AC3
Duration                    : 1 h 33 min
Bit rate mode               : Constant
Bit rate                    : 192 kb/s
Channel(s)                  : 2 channels
Channel positions           : Front: L R
Sampling rate               : 48.0 kHz
Frame rate                  : 31.250 FPS (1536 SPF)
Bit depth                   : 16 bits
Compression mode            : Lossy
Stream size                 : 129 MiB (6%)
Title                       : Ukrainian /  ICTV
Language                    : Ukrainian
Service kind                : Complete Main
Default                     : Yes
Forced                      : Yes

Audio #2
ID                          : 3
Format                      : AC-3
Format/Info                 : Audio Coding 3
Codec ID                    : A_AC3
Duration                    : 1 h 33 min
Bit rate mode               : Constant
Bit rate                    : 448 kb/s
Channel(s)                  : 6 channels
Channel positions           : Front: L C R, Side: L R, LFE
Sampling rate               : 48.0 kHz
Frame rate                  : 31.250 FPS (1536 SPF)
Bit depth                   : 16 bits
Compression mode            : Lossy
Stream size                 : 301 MiB (14%)
Language                    : English
Service kind                : Complete Main
Default                     : No
Forced                      : No

Text
ID                          : 4
Format                      : UTF-8
Codec ID                    : S_TEXT/UTF8
Codec ID/Info               : UTF-8 Plain Text
Duration                    : 1 h 27 min
Bit rate                    : 30 b/s
Count of elements           : 649
Stream size                 : 19.4 KiB (0%)
Language                    : English
Default                     : No
Forced                      : No

Menu
00:00:00.000                : en:Chapter 01
00:05:00.000                : en:Chapter 02
00:10:00.000                : en:Chapter 03
00:15:00.000                : en:Chapter 04
00:20:00.000                : en:Chapter 05
00:25:00.000                : en:Chapter 06
00:30:00.000                : en:Chapter 07
00:35:00.000                : en:Chapter 08
00:40:00.000                : en:Chapter 09
00:45:00.000                : en:Chapter 10
00:50:00.000                : en:Chapter 11
00:55:00.000                : en:Chapter 12
01:00:00.000                : en:Chapter 13
01:05:00.000                : en:Chapter 14
01:10:00.000                : en:Chapter 15
01:15:00.000                : en:Chapter 16
01:20:00.000                : en:Chapter 17
01:25:00.000                : en:Chapter 18
01:30:00.000                : en:Chapter 19
Світлини





Джерело: &
Особиста оцінка: 8 - мені сподобалося
Обитель зла 3. Вимирання / Resident Evil: Extinction (2007) -AVC Ukr/Eng | Sub Eng

Обитель зла 3. Вимирання / Resident Evil: Extinction (2007) AVC Ukr/Eng | Sub Eng

Оселя зла. Колекція / Resident Evil. Collection (2002-2016) AVC Ukr/Eng | Sub Ukr/Eng

«На цей раз без компромісів»



Жанр: бойовик, жахи, фантастика, трилер
Країна: Франція, Австралія, Німеччина, Великобританія, США



Кіностудія / кінокомпанія: Constantin Film, Screen Gems
Режисер: Рассел Малкей / Russell Mulcahy
Актори: Мілла Йовович / Milla Jovovich, Одед Фехр /Oded Fehr/, Алі Лартер /Ali Larter/, Йен Глен /Iain Glen/, Ашанті /Ashanti/, Крістофер Іген /Christopher Egan

Сюжет: Еліс, не раз вже рятувала світ від смертельних вірусів і неминучої загибелі, знов береться за зброю. На цей раз їй доведеться зіткнутися з корпорацією «Амбрела», що розробляє безглуздий антигуманний проект. Підступні політики і прагматичні вчені намагаються знищити людей і замінити їх на більш «досконалі» створіння, заселивши Землю невразливими безсмертними клонами…

Тривалість: 01:34:06
Якість: AVC
Відео:
кодек:
розмір кадру: 1024x428
бітрейт: 2569 кб/с

Аудіо # 1:
мова: українська
переклад: багатоголосий закадровий, озвучений ТакТребаПродакш на замовлення Аврора Дистрибюшн, записаний з Оселя зла. Колекція / Resident Evil. Collection (2002-2016) AVC Ukr/Eng | Sub Ukr/Eng
кодек: 2.0
бітрейт: 192 кб/с
ролі озвучили: Олег Стальчук, Анатолій Пашнін, Юлія Перенчук і ще один жіночий

Аудіо # 2:
мова: англійська
переклад: оригінал
кодек: АС3 5.1
бітрейт: 448 кб/с

Субтитри:
мова: англійська
тип: програмні (м'які)
формат: *.srt
Info
Код:

General
Unique ID                   : 22462628949361218132927575829838657610 (0x10E6251CE7FBFC21554F8F607495784A)
Complete name               : H:\Resident Evil Extinction (2007) AVC [UKR_ENG] [Hurtom].
Format                      :
Format version              : Version 4 / Version 2
File size                   : 2.11 GiB
Duration                    : 1 h 34 min
Overall bit rate            : 3 210 kb/s
Movie name                  : Resident Evil: Extinction (2007) AVC [UKR_ENG] [Hurtom]
Encoded date                : UTC 2018-09-13 18:32:29
Writing application         : v24.0.0 ('Beyond The Pale') 64-bit
Writing library             : libebml v1.3.6 + v1.4.9
Cover                       : Yes
Attachments                 : cover.jpg

Video
ID                          : 1
Format                      : AVC
Format/Info                 : Advanced Video Codec
Format profile              : [email protected]
Format settings             : CABAC / 8 Ref Frames
Format settings, CABAC      : Yes
Format settings, ReFrames   : 8 frames
Codec ID                    : V_MPEG4/ISO/AVC
Duration                    : 1 h 34 min
Bit rate                    : 2 569 kb/s
Width                       : 1 024 pixels
Height                      : 428 pixels
Display aspect ratio        : 2.40:1
Frame rate mode             : Constant
Frame rate                  : 23.976 (24000/1001) FPS
Color space                 : YUV
Chroma subsampling          : 4:2:0
Bit depth                   : 8 bits
Scan type                   : Progressive
Bits/(Pixel*Frame)          : 0.244
Stream size                 : 1.69 GiB (80%)
Writing library             : core 129 r2245 bc13772
Encoding settings           : cabac=1 / ref=8 / deblock=1:-2:-2 / analyse=0x3:0x133 / me=umh / subme=11 / psy=1 / psy_rd=1.00:0.00 / mixed_ref=1 / me_range=48 / chroma_me=1 / trellis=2 / 8x8dct=1 / cqm=0 / deadzone=21,11 / fast_pskip=0 / chroma_qp_offset=-2 / threads=3 / lookahead_threads=1 / sliced_threads=0 / nr=0 / decimate=0 / interlaced=0 / bluray_compat=0 / constrained_intra=0 / bframes=8 / b_pyramid=2 / b_adapt=2 / b_bias=0 / direct=3 / weightb=1 / open_gop=0 / weightp=2 / keyint=240 / keyint_min=23 / scenecut=40 / intra_refresh=0 / rc_lookahead=40 / rc=2pass / mbtree=1 / bitrate=2569 / ratetol=1.0 / qcomp=0.60 / qpmin=10 / qpmax=51 / qpstep=4 / cplxblur=20.0 / qblur=0.5 / ip_ratio=1.40 / aq=2:1.00
Language                    : English
Default                     : No
Forced                      : No

Audio #1
ID                          : 2
Format                      : AC-3
Format/Info                 : Audio Coding 3
Codec ID                    : A_AC3
Duration                    : 1 h 34 min
Bit rate mode               : Constant
Bit rate                    : 192 kb/s
Channel(s)                  : 2 channels
Channel positions           : Front: L R
Sampling rate               : 48.0 kHz
Frame rate                  : 31.250 FPS (1536 SPF)
Bit depth                   : 16 bits
Compression mode            : Lossy
Stream size                 : 129 MiB (6%)
Title                       : Ukrainian /  ICTV
Language                    : Ukrainian
Service kind                : Complete Main
Default                     : Yes
Forced                      : Yes

Audio #2
ID                          : 3
Format                      : AC-3
Format/Info                 : Audio Coding 3
Codec ID                    : A_AC3
Duration                    : 1 h 34 min
Bit rate mode               : Constant
Bit rate                    : 448 kb/s
Channel(s)                  : 6 channels
Channel positions           : Front: L C R, Side: L R, LFE
Sampling rate               : 48.0 kHz
Frame rate                  : 31.250 FPS (1536 SPF)
Bit depth                   : 16 bits
Compression mode            : Lossy
Stream size                 : 302 MiB (14%)
Language                    : English
Service kind                : Complete Main
Default                     : No
Forced                      : No

Text
ID                          : 4
Format                      : UTF-8
Codec ID                    : S_TEXT/UTF8
Codec ID/Info               : UTF-8 Plain Text
Duration                    : 1 h 28 min
Bit rate                    : 27 b/s
Count of elements           : 562
Stream size                 : 17.7 KiB (0%)
Language                    : English
Default                     : No
Forced                      : No

Menu
00:00:00.000                : en:Chapter 01
00:07:32.368                : en:Chapter 02
00:13:39.318                : en:Chapter 03
00:18:25.438                : en:Chapter 04
00:25:13.387                : en:Chapter 05
00:30:07.806                : en:Chapter 06
00:32:17.727                : en:Chapter 07
00:38:53.498                : en:Chapter 08
00:44:21.784                : en:Chapter 09
00:50:56.053                : en:Chapter 10
00:55:23.654                : en:Chapter 11
01:01:46.161                : en:Chapter 12
01:08:50.376                : en:Chapter 13
01:14:42.770                : en:Chapter 14
01:19:13.247                : en:Chapter 15
01:24:15.550                : en:Chapter 16
Світлини




Джерело: &
Особиста оцінка: 8 - мені сподобалося
Оселя зла 4. Потойбічне життя / Resident Evil: Afterlife (2010) AVC Ukr/Eng | Sub Eng

Оселя зла 4. Потойбічне життя / Resident Evil: Afterlife (2010) AVC Ukr/Eng | Sub Eng

Оселя зла. Колекція / Resident Evil. Collection (2002-2016) AVC Ukr/Eng | Sub Ukr/Eng

«Випробуйте новий вимір зла»



Жанр: екшн, жахи, фантастика, трилер
Країна: Німеччина, Франція, Велика Британія



Кіностудія / кінокомпанія: Impact Pictures, Davis-Films, Constantin Film Produktion
Режисер: Пол У.С Андерсон
Актори: Мілла Йовович / Milla Jovovich, Алі Лартер /Ali Larter, Кім Коутс / Kim Coates, Шон Робертс / Shawn Roberts, Серджіо Періс-Менчета / Sergio Peris-Mencheta, Спенсер Лок / Spencer Locke та інші

Сюжет: Еліс продовжує свій шлях у світі, ураженому вірусною інфекцією, що перетворює людей в живих мерців. Героїня шукає живих людей, щоб вивести їх в безпечне місце. Її смертельна битва з корпорацією Амбрелла виходить на новий рівень, коли вона раптом одержує несподівану допомогу від старого друга. Він обіцяє привести Еліс у безпечну зону в Лос-Анджелесі, але як тільки вони потрапляють до міста, то бачать тисячі заражених і опиняються у смертельній пастці...

Тривалість: 01:36:52
Якість: AVC
Відео:
кодек:
розмір кадру: 1024 x 426
бітрейт: 2549 кб/с

Аудіо # 1:
мова: українська
переклад: професійний дубльований
кодек: 5.1
бітрейт: 448 кб/с
Інформація про дубляж:
Фільм надано компанією Columbia Pictures дубльовано LeDoyen Studio на замовлення B&H Film Distribution
Переклад: Федора Сидорука
Режисер дубляжу: Анна Пащенко
Звукорежисер: Дмитро Мялковський
Ролі дублювали: Мілла Йовович - Катерина Коновалова, Вентвор Міллер/Кріс Редфілд - Іван Розін, Світлана Шекера, Шон Робертс/Альберт Вескер - Андрій Мостренко, Борис Коджо/Лютер - Дмитро Гаврилов, Кім Коатс/Беннет - Дмитро Завадський, Ксенія Пасарар, назву фільму і написи - Олександр Ігнатуша та інш.
Аудіо # 2:
мова: англійська
переклад: оригінал
кодек: АС3 5.1
бітрейт: 448 кб/с

Субтитри:
мова: англійська
тип: програмні (м'які)
формат: *.srt
Info
Код:

General
Unique ID                   : 237173799853485136930004257570062922266 (0xB26E0327276F055E6CB008D3F27CF21A)
Complete name               : H:\Resident Evil Afterlife (2010) AVC [UKR_ENG] [Hurtom].
Format                      :
Format version              : Version 4 / Version 2
File size                   : 2.33 GiB
Duration                    : 1 h 36 min
Overall bit rate            : 3 445 kb/s
Movie name                  : Resident Evil: Afterlife (2010) AVC [UKR_ENG] [Hurtom]
Encoded date                : UTC 2018-09-13 19:03:01
Writing application         : v24.0.0 ('Beyond The Pale') 64-bit
Writing library             : libebml v1.3.6 + v1.4.9
Cover                       : Yes
Attachments                 : cover.jpg

Video
ID                          : 1
Format                      : AVC
Format/Info                 : Advanced Video Codec
Format profile              : [email protected]
Format settings             : CABAC / 8 Ref Frames
Format settings, CABAC      : Yes
Format settings, ReFrames   : 8 frames
Codec ID                    : V_MPEG4/ISO/AVC
Duration                    : 1 h 36 min
Bit rate                    : 2 549 kb/s
Width                       : 1 024 pixels
Height                      : 426 pixels
Display aspect ratio        : 2.40:1
Frame rate mode             : Constant
Frame rate                  : 23.976 (24000/1001) FPS
Color space                 : YUV
Chroma subsampling          : 4:2:0
Bit depth                   : 8 bits
Scan type                   : Progressive
Bits/(Pixel*Frame)          : 0.244
Stream size                 : 1.72 GiB (74%)
Writing library             : core 129 r2245 bc13772
Encoding settings           : cabac=1 / ref=8 / deblock=1:-2:-2 / analyse=0x3:0x133 / me=umh / subme=11 / psy=1 / psy_rd=1.00:0.00 / mixed_ref=1 / me_range=48 / chroma_me=1 / trellis=2 / 8x8dct=1 / cqm=0 / deadzone=21,11 / fast_pskip=0 / chroma_qp_offset=-2 / threads=3 / lookahead_threads=1 / sliced_threads=0 / nr=0 / decimate=0 / interlaced=0 / bluray_compat=0 / constrained_intra=0 / bframes=8 / b_pyramid=2 / b_adapt=2 / b_bias=0 / direct=3 / weightb=1 / open_gop=0 / weightp=2 / keyint=240 / keyint_min=23 / scenecut=40 / intra_refresh=0 / rc_lookahead=40 / rc=2pass / mbtree=1 / bitrate=2549 / ratetol=1.0 / qcomp=0.60 / qpmin=10 / qpmax=51 / qpstep=4 / cplxblur=20.0 / qblur=0.5 / ip_ratio=1.40 / aq=2:1.00
Language                    : English
Default                     : No
Forced                      : No

Audio #1
ID                          : 2
Format                      : AC-3
Format/Info                 : Audio Coding 3
Codec ID                    : A_AC3
Duration                    : 1 h 36 min
Bit rate mode               : Constant
Bit rate                    : 448 kb/s
Channel(s)                  : 6 channels
Channel positions           : Front: L C R, Side: L R, LFE
Sampling rate               : 48.0 kHz
Frame rate                  : 31.250 FPS (1536 SPF)
Bit depth                   : 16 bits
Compression mode            : Lossy
Stream size                 : 310 MiB (13%)
Title                       : Ukrainian / Дубляж, R5
Language                    : Ukrainian
Service kind                : Complete Main
Default                     : Yes
Forced                      : Yes

Audio #2
ID                          : 3
Format                      : AC-3
Format/Info                 : Audio Coding 3
Codec ID                    : A_AC3
Duration                    : 1 h 36 min
Bit rate mode               : Constant
Bit rate                    : 448 kb/s
Channel(s)                  : 6 channels
Channel positions           : Front: L C R, Side: L R, LFE
Sampling rate               : 48.0 kHz
Frame rate                  : 31.250 FPS (1536 SPF)
Bit depth                   : 16 bits
Compression mode            : Lossy
Stream size                 : 310 MiB (13%)
Language                    : English
Service kind                : Complete Main
Default                     : No
Forced                      : No

Text
ID                          : 4
Format                      : UTF-8
Codec ID                    : S_TEXT/UTF8
Codec ID/Info               : UTF-8 Plain Text
Duration                    : 1 h 32 min
Bit rate                    : 27 b/s
Count of elements           : 652
Stream size                 : 18.8 KiB (0%)
Language                    : English
Default                     : No
Forced                      : No

Menu
00:00:00.000                : en:Chapter 01
00:07:51.304                : en:Chapter 02
00:14:04.552                : en:Chapter 03
00:19:21.368                : en:Chapter 04
00:25:23.939                : en:Chapter 05
00:30:07.222                : en:Chapter 06
00:35:08.189                : en:Chapter 07
00:41:51.091                : en:Chapter 08
00:47:07.241                : en:Chapter 09
00:53:41.468                : en:Chapter 10
01:00:53.941                : en:Chapter 11
01:07:58.532                : en:Chapter 12
01:14:07.985                : en:Chapter 13
01:17:54.711                : en:Chapter 14
01:23:39.014                : en:Chapter 15
01:27:24.489                : en:Chapter 16
Світлини




Джерело: &
Особиста оцінка: 6 - третій сорт - не брак
Оселя зла: Відплата / Resident Evil: Retribution (2012) AVC Ukr/Eng | Sub Eng

Оселя зла: Відплата / Resident Evil: Retribution (2012) AVC Ukr/Eng | Sub Eng

Оселя зла. Колекція / Resident Evil. Collection (2002-2016) AVC Ukr/Eng | Sub Ukr/Eng

«Зло стає глобальним»



Жанр: екшн, жахи, фантастика
Країна: США, Німеччина



Кіностудія / кінокомпанія: Screen Gems, Davis Films/Impact Pictures, Constantin Film International
Режисер: Пол Андерсон
Актори: Мілла Йовович / Milla Jovovich, Джейсон Айзекс, Мішель Родрігес, Сієнна Гіллорі та інші

Сюжет: Смертельний T-вірус, створений в лабораторіях корпорації «Амбрелла», продовжує захоплювати Землю, перетворюючи світове населення в легіони зомбі, що пожирають плоть...

Тривалість: 01:35:37
Якість: AVC
Відео:
кодек:
розмір кадру: 1024x436
бітрейт: 2499 кб/с

Аудіо # 1:
мова: українська
переклад: професійний дубльований
кодек: 5.1
бітрейт: 448 кб/с

Аудіо # 2:
мова: англійська
переклад: оригінал
кодек: 5.1
бітрейт: 448 кб/с

Субтитри:
мова: англійська
тип: програмні (м'які)
формат: *.srt
Info
Код:

General
Unique ID                   : 172698847680903770569865772647216274422 (0x81EC9694FEB400FB9840582247175BF6)
Complete name               : H:\Resident Evil Retribution (2012) AVC [UKR_ENG] [Hurtom].
Format                      :
Format version              : Version 4 / Version 2
File size                   : 2.27 GiB
Duration                    : 1 h 35 min
Overall bit rate            : 3 394 kb/s
Movie name                  : Resident Evil: Retribution (2012) AVC [UKR_ENG] [Hurtom]
Encoded date                : UTC 2018-09-14 13:41:36
Writing application         : v24.0.0 ('Beyond The Pale') 64-bit
Writing library             : libebml v1.3.6 + v1.4.9
Cover                       : Yes
Attachments                 : cover.jpg

Video
ID                          : 1
Format                      : AVC
Format/Info                 : Advanced Video Codec
Format profile              : [email protected]
Format settings             : CABAC / 8 Ref Frames
Format settings, CABAC      : Yes
Format settings, ReFrames   : 8 frames
Codec ID                    : V_MPEG4/ISO/AVC
Duration                    : 1 h 35 min
Bit rate                    : 2 499 kb/s
Width                       : 1 024 pixels
Height                      : 436 pixels
Display aspect ratio        : 2.35:1
Frame rate mode             : Constant
Frame rate                  : 23.976 (24000/1001) FPS
Color space                 : YUV
Chroma subsampling          : 4:2:0
Bit depth                   : 8 bits
Scan type                   : Progressive
Bits/(Pixel*Frame)          : 0.233
Stream size                 : 1.67 GiB (74%)
Writing library             : core 129 r2245 bc13772
Encoding settings           : cabac=1 / ref=8 / deblock=1:-2:-2 / analyse=0x3:0x133 / me=umh / subme=11 / psy=1 / psy_rd=1.00:0.00 / mixed_ref=1 / me_range=48 / chroma_me=1 / trellis=2 / 8x8dct=1 / cqm=0 / deadzone=21,11 / fast_pskip=0 / chroma_qp_offset=-2 / threads=3 / lookahead_threads=1 / sliced_threads=0 / nr=0 / decimate=0 / interlaced=0 / bluray_compat=0 / constrained_intra=0 / bframes=8 / b_pyramid=2 / b_adapt=2 / b_bias=0 / direct=3 / weightb=1 / open_gop=0 / weightp=2 / keyint=240 / keyint_min=23 / scenecut=40 / intra_refresh=0 / rc_lookahead=40 / rc=2pass / mbtree=1 / bitrate=2499 / ratetol=1.0 / qcomp=0.60 / qpmin=10 / qpmax=51 / qpstep=4 / cplxblur=20.0 / qblur=0.5 / ip_ratio=1.40 / aq=2:1.00
Language                    : English
Default                     : No
Forced                      : No

Audio #1
ID                          : 2
Format                      : AC-3
Format/Info                 : Audio Coding 3
Codec ID                    : A_AC3
Duration                    : 1 h 35 min
Bit rate mode               : Constant
Bit rate                    : 448 kb/s
Channel(s)                  : 6 channels
Channel positions           : Front: L C R, Side: L R, LFE
Sampling rate               : 48.0 kHz
Frame rate                  : 31.250 FPS (1536 SPF)
Bit depth                   : 16 bits
Compression mode            : Lossy
Stream size                 : 306 MiB (13%)
Title                       : [UA-DUB]
Language                    : Ukrainian
Service kind                : Complete Main
Default                     : Yes
Forced                      : Yes

Audio #2
ID                          : 3
Format                      : AC-3
Format/Info                 : Audio Coding 3
Codec ID                    : A_AC3
Duration                    : 1 h 35 min
Bit rate mode               : Constant
Bit rate                    : 448 kb/s
Channel(s)                  : 6 channels
Channel positions           : Front: L C R, Side: L R, LFE
Sampling rate               : 48.0 kHz
Frame rate                  : 31.250 FPS (1536 SPF)
Bit depth                   : 16 bits
Compression mode            : Lossy
Stream size                 : 306 MiB (13%)
Language                    : English
Service kind                : Complete Main
Default                     : No
Forced                      : No

Text
ID                          : 4
Format                      : UTF-8
Codec ID                    : S_TEXT/UTF8
Codec ID/Info               : UTF-8 Plain Text
Duration                    : 1 h 23 min
Bit rate                    : 25 b/s
Count of elements           : 633
Stream size                 : 15.8 KiB (0%)
Language                    : English
Default                     : No
Forced                      : No

Menu
00:00:00.000                : en:Chapter 01
00:07:43.045                : en:Chapter 02
00:14:32.538                : en:Chapter 03
00:21:38.839                : en:Chapter 04
00:25:39.329                : en:Chapter 05
00:29:31.186                : en:Chapter 06
00:34:16.846                : en:Chapter 07
00:39:14.769                : en:Chapter 08
00:45:29.435                : en:Chapter 09
00:50:27.441                : en:Chapter 10
00:54:42.070                : en:Chapter 11
01:00:14.861                : en:Chapter 12
01:05:38.476                : en:Chapter 13
01:11:22.903                : en:Chapter 14
01:16:15.571                : en:Chapter 15
01:21:29.384                : en:Chapter 16
Світлини





Джерело: &
Особиста оцінка: 6 - третій сорт - не брак
Оселя зла: Фінальна битва / Resident Evil: The Final Chapter (2016) AVC Ukr/Eng | Sub Ukr/Eng

Оселя зла: Фінальна битва / Resident Evil: The Final Chapter (2016) AVC Ukr/Eng | Sub Ukr/Eng

Оселя зла. Колекція / Resident Evil. Collection (2002-2016) AVC Ukr/Eng | Sub Ukr/Eng

«Мене звати Еліс. І це кінець моєї історії.»



Жанр: трилер, фантастика, жахи, бойовик
Країна: Німеччина, Австралія, Канада, Франція



Кінокомпанія: Capcom Entertainment, Impact Pictures, Screen Gems
Режисер: Пол У. С. Андерсон
Актори: Мілла Йовович, Рубі Роуз, Елі Лартер, Ієн Глен, Вільям Леві, Шон Робертс, Рола, Оуен Мекен

Сюжет:
Еліс продовжує свою боротьбу з ворожою системою корпорації з допомогою своїх друзів: Джилл Валентайн, Ада Вонг, Леон Скотт Кеннеді і Беккі, продовжуючи непростий союз з колишнім головою — Альбертом Вескером. По дорозі вони возз'єднаються з колишніми захопленими товаришами: Крісом, Клер і Кей-Март. Їх епічна битва приведе їх туди, де все й почалося, в темний особняк, побудований засновником Оузвелом Спенсером.


Тривалість: 01:46:40
Якість: AVC

Відео:
кодек:
розмір кадру: 1024x426
бітрейт: 1695 кб/с

Аудіо # 1:
мова: українська
переклад: професійний дубльований
кодек: 2.0
бітрейт: 192 кб/с

Аудіо # 2:
мова: англійська
переклад: оригінал
кодек: 5.1
бітрейт: 448 кб/с

Субтитри (Forced, Full):
мова: українська
тип: програмні (м'які)
формат: *.srt

Субтитри:
мова: англійська
тип: програмні (м'які)
формат: *.srt
Info
Код:
General
Unique ID                   : 287007991001844196484744064185512510269 (0xD7EBBA7965E7566710E7D7459B20433D)
Complete name               : H:\» Українське озвучення » Фільми\Жахи\Resident Evil. Collection (2002-2016) AVC [UKR_ENG] [Hurtom]\Resident Evil The Final Chapter (2016) AVC [UKR_ENG] [Hurtom].
Format                      :
Format version              : Version 4 / Version 2
File size                   : 1.74 GiB
Duration                    : 1 h 46 min
Overall bit rate            : 2 337 kb/s
Movie name                  : Resident Evil: The Final Chapter (2016) AVC [UKR_ENG] [Hurtom]
Encoded date                : UTC 2018-09-14 20:33:52
Writing application         : v24.0.0 ('Beyond The Pale') 64-bit
Writing library             : libebml v1.3.6 + v1.4.9
Cover                       : Yes
Attachments                 : cover.jpg

Video
ID                          : 1
Format                      : AVC
Format/Info                 : Advanced Video Codec
Format profile              : [email protected]
Format settings             : CABAC / 14 Ref Frames
Format settings, CABAC      : Yes
Format settings, ReFrames   : 14 frames
Codec ID                    : V_MPEG4/ISO/AVC
Duration                    : 1 h 46 min
Bit rate                    : 1 695 kb/s
Width                       : 1 024 pixels
Height                      : 426 pixels
Display aspect ratio        : 2.40:1
Frame rate mode             : Constant
Frame rate                  : 23.976 (24000/1001) FPS
Color space                 : YUV
Chroma subsampling          : 4:2:0
Bit depth                   : 8 bits
Scan type                   : Progressive
Bits/(Pixel*Frame)          : 0.162
Stream size                 : 1.26 GiB (73%)
Title                       : Enigma
Writing library             : core 144 r2525 40bb568
Encoding settings           : cabac=1 / ref=14 / deblock=1:-3:-3 / analyse=0x3:0x113 / me=umh / subme=10 / psy=1 / psy_rd=1.03:0.07 / mixed_ref=1 / me_range=32 / chroma_me=1 / trellis=2 / 8x8dct=1 / cqm=0 / deadzone=21,11 / fast_pskip=1 / chroma_qp_offset=-3 / threads=12 / lookahead_threads=3 / sliced_threads=0 / nr=0 / decimate=1 / interlaced=0 / bluray_compat=0 / constrained_intra=0 / bframes=11 / b_pyramid=2 / b_adapt=2 / b_bias=0 / direct=3 / weightb=1 / open_gop=0 / weightp=2 / keyint=240 / keyint_min=23 / scenecut=40 / intra_refresh=0 / rc_lookahead=40 / rc=2pass / mbtree=0 / bitrate=1695 / ratetol=1.0 / qcomp=0.61 / qpmin=0 / qpmax=51 / qpstep=4 / cplxblur=20.0 / qblur=0.5 / vbv_maxrate=50000 / vbv_bufsize=62500 / nal_hrd=none / filler=0 / ip_ratio=1.40 / pb_ratio=1.30 / aq=1:0.80
Language                    : English
Default                     : Yes
Forced                      : No
Color range                 : Limited
Color primaries             : BT.709
Transfer characteristics    : BT.709
Matrix coefficients         : BT.709

Audio #1
ID                          : 2
Format                      : AC-3
Format/Info                 : Audio Coding 3
Codec ID                    : A_AC3
Duration                    : 1 h 46 min
Bit rate mode               : Constant
Bit rate                    : 192 kb/s
Channel(s)                  : 2 channels
Channel positions           : Front: L R
Sampling rate               : 48.0 kHz
Frame rate                  : 31.250 FPS (1536 SPF)
Bit depth                   : 16 bits
Compression mode            : Lossy
Stream size                 : 146 MiB (8%)
Title                       : Дубляж - iTunes
Language                    : Ukrainian
Service kind                : Complete Main
Default                     : Yes
Forced                      : Yes

Audio #2
ID                          : 3
Format                      : AC-3
Format/Info                 : Audio Coding 3
Codec ID                    : A_AC3
Duration                    : 1 h 46 min
Bit rate mode               : Constant
Bit rate                    : 448 kb/s
Channel(s)                  : 6 channels
Channel positions           : Front: L C R, Side: L R, LFE
Sampling rate               : 48.0 kHz
Frame rate                  : 31.250 FPS (1536 SPF)
Bit depth                   : 16 bits
Compression mode            : Lossy
Stream size                 : 342 MiB (19%)
Language                    : English
Service kind                : Complete Main
Default                     : No
Forced                      : No

Text #1
ID                          : 4
Format                      : UTF-8
Codec ID                    : S_TEXT/UTF8
Codec ID/Info               : UTF-8 Plain Text
Duration                    : 1 h 36 min
Bit rate                    : 0 b/s
Count of elements           : 16
Stream size                 : 665 Bytes (0%)
Title                       : Forced (ver. Ash61)
Language                    : Ukrainian
Default                     : Yes
Forced                      : Yes

Text #2
ID                          : 5
Format                      : UTF-8
Codec ID                    : S_TEXT/UTF8
Codec ID/Info               : UTF-8 Plain Text
Duration                    : 1 h 45 min
Bit rate                    : 50 b/s
Count of elements           : 854
Stream size                 : 38.7 KiB (0%)
Title                       : Full (iTunes)
Language                    : Ukrainian
Default                     : No
Forced                      : No

Text #3
ID                          : 6
Format                      : UTF-8
Codec ID                    : S_TEXT/UTF8
Codec ID/Info               : UTF-8 Plain Text
Duration                    : 1 h 45 min
Bit rate                    : 31 b/s
Count of elements           : 818
Stream size                 : 24.3 KiB (0%)
Language                    : English
Default                     : No
Forced                      : No

Menu
00:00:00.000                : en:Chapter 01
00:05:39.339                : en:Chapter 02
00:11:18.177                : en:Chapter 03
00:17:00.102                : en:Chapter 04
00:22:36.146                : en:Chapter 05
00:27:21.640                : en:Chapter 06
00:33:38.474                : en:Chapter 07
00:40:47.820                : en:Chapter 08
00:46:36.126                : en:Chapter 09
00:53:18.778                : en:Chapter 10
01:03:18.669                : en:Chapter 11
01:10:47.826                : en:Chapter 12
01:15:37.574                : en:Chapter 13
01:22:57.806                : en:Chapter 14
01:28:32.765                : en:Chapter 15
01:35:07.159                : en:Chapter 16
Скріншоти



Джерело: &
Особиста оцінка: 0 - не дивився
Подяка dvorsky та robotron005, Merdiff, karvai0, MAKAPOHHIK, Technomate за звукозапис з ТБ,
за доріжку і субтитри до останньої частини подяка пану Ash61
Подяка hellforces та Skiff за українізацію постерів.


Золотий реліз (завантажене не впливає на рейтинг)
 Трекер:    Зареєстрований   

Завантажити / скачати фільм українською



відео для новачків



 Зареєстрований:   2018-09-14 23:45
 Розмір:   13.42 GB 
 Оцінка фільму:   9.2/10 (Голосів: 30)
   
bot 
робот


З нами з: 30.09.07
Востаннє: 26.05.05
Повідомлень: 22470

2018-09-14 23:44  
Тему перенесено з Анонси релізів до форуму Фільми


staf777

Rhett_Butler 
Новенький


З нами з: 07.11.11
Востаннє: 10.11.19
Повідомлень: 20

2018-09-15 21:32  
Дякую за цю чудову колекцію .
Atlant777 
Новенький


З нами з: 01.03.15
Востаннє: 12.11.19
Повідомлень: 15

2019-11-08 07:21  
Ще б постери редагували в перших трьох частинах, на відповідну назву Оселя зла
Ваш часовий пояс: GMT + 2 Години

Нова тема   Відповісти