Легіон (Сезон 2) / Legion (Season 2) (2018) 1080p H.265 Eng | Sub Ukr/Eng

Нові коментарі

Нова тема   Відповісти
Автор Повідомлення
ukr_anonymous 
Забанено
Забанено


З нами з: 16.04.18
Востаннє: 17.11.19
Повідомлень: 233

2018-09-08 03:48  
Легіон (Сезон 2) / Legion (Season 2) (2018) 1080p H.265 Eng | Sub Ukr/Eng

Легіон (Сезон 2) / Legion (Season 2) (2018) 1080p H.265 Eng | Sub Ukr/Eng


Жанр: драма, фантастика, екшн
Країна: США



Кінокомпанія: Marvel Television
Режисер: Ной Гоулі
Актори: Ден Стівенс, Рейчел Келлер, Обрі Плаза

Сюжет:
Нарешті Девід Геллер повернувся до попереднього життя і змирився з тим, що тепер його галюцинації його ніколи не покинуть. Проте, йому відкривається жахлива правда, він не божевільний. Все, що він чує - це справжні люди, які багато років живуть в його тілі. Всі вони хочуть отримати контроль над ситуацією і витіснити своїх конкурентів. А сам він - невідома науці істота, яка володіє майже необмеженими можливостями. Тепер герой повинен навчитися керувати своїми силами і контролювати тих, хто живе в його свідомості.


Тривалість: 1 серія: ~60 хв. (цілком серій: 11)
Перелік серій та назва
Код:
01. Chapter 9 / Глава 9
02. Chapter 10 / Глава 10
03. Chapter 11 / Глава 11
04. Chapter 12 / Глава 12
05. Chapter 13 / Глава 13
06. Chapter 14 / Глава 14
07. Chapter 15 / Глава 15
08. Chapter 16 / Глава 16
09. Chapter 17 / Глава 17
10. Chapter 18 / Глава 18
11. Chapter 19 / Глава 19
Якість: 1080p H.265
Відео:
кодек: H.265 (HEVC)
розмір кадру: 1920 x 1080
бітрейт: 1977 кб/с
бітова глибина: 10 біт
Увага! Перед завантаженням переконайтесь, що ваш пристрій відтворення (та/або ПЗ) підтримує H.265 (HEVC)

Аудіо:
мова: англійська
переклад: оригінал
кодек: E- 5.1
бітрейт: 640 кб/с

Субтитри # 1:
мова: українська
тип: програмні (м'які)
формат: *.srt
Джерело субтитрів: Перейти . Подяка pskrm

Субтитри # 2:
мова: англійська
тип: програмні (м'які)
формат: *.srt


Info
Код:
General
Unique ID                                : 198106679505120936889938797226400314070 (0x9509F568655445223FB1E0CD9EFA72D6)
Complete name                            : E:\Video\Legion S02 (2017) H.265\Legion (2017) - S02E01 1080p H.265 [ENG] [SUB(UKR_ENG)].
Format                                   :
Format version                           : Version 4 / Version 2
File size                                : 1.09 GiB
Duration                                 : 59 min 19 s
Overall bit rate                         : 2 619 kb/s
Movie name                               : Legion (2017) - S02E01 - Chapter 9
Encoded date                             : UTC 2018-09-08 00:39:21
Writing application                      : v20.0.0 ('I Am The Sun') 32-bit
Writing library                          : libebml v1.3.5 + v1.4.8
Cover                                    : Yes
Attachments                              : cover.jpg

Video
ID                                       : 1
Format                                   : HEVC
Format/Info                              : High Efficiency Video Coding
Format profile                           : Main [email protected]@Main
Codec ID                                 : V_MPEGH/ISO/HEVC
Duration                                 : 59 min 19 s
Bit rate                                 : 1 977 kb/s
Width                                    : 1 920 pixels
Height                                   : 1 080 pixels
Display aspect ratio                     : 16:9
Frame rate mode                          : Constant
Frame rate                               : 23.976 (24000/1001) FPS
Color space                              : YUV
Chroma subsampling                       : 4:2:0
Bit depth                                : 10 bits
Bits/(Pixel*Frame)                       : 0.040
Stream size                              : 839 MiB (75%)
Writing library                          : x265 2.7+1-2aa737a99f51:[Windows][GCC 8.0.1][64 bit] 10bit
Encoding settings                        : cpuid=1173503 / frame-threads=3 / numa-pools=12 / wpp / no-pmode / no-pme / no-psnr / no-ssim / log-level=2 / input-csp=1 / input-res=1920x1080 / interlace=0 / total-frames=85338 / level-idc=0 / high-tier=1 / uhd-bd=0 / ref=4 / no-allow-non-conformance / no-repeat-headers / annexb / no-aud / no-hrd / info / hash=0 / no-temporal-layers / open-gop / min-keyint=23 / keyint=250 / gop-lookahead=0 / bframes=8 / b-adapt=2 / b-pyramid / bframe-bias=0 / rc-lookahead=70 / lookahead-slices=4 / scenecut=40 / radl=0 / no-intra-refresh / ctu=64 / min-cu-size=8 / no-rect / no-amp / max-tu-size=32 / tu-inter-depth=1 / tu-intra-depth=1 / limit-tu=0 / rdoq-level=2 / dynamic-rd=0.00 / no-ssim-rd / signhide / no-tskip / nr-intra=0 / nr-inter=0 / no-constrained-intra / strong-intra-smoothing / max-merge=3 / limit-refs=3 / limit-modes / me=3 / subme=5 / merange=57 / temporal-mvp / weightp / weightb / no-analyze-src-pics / deblock=-1:-1 / sao / no-sao-non-deblock / rd=4 / no-early-skip / rskip / no-fast-intra / no-tskip-fast / no-cu-lossless / no-b-intra / no-splitrd-skip / rdpenalty=0 / psy-rd=1.65 / psy-rdoq=1.00 / no-rd-refine / no-lossless / cbqpoffs=0 / crqpoffs=0 / rc=crf / crf=20.0 / qcomp=0.60 / qpstep=4 / stats-write=0 / stats-read=0 / ipratio=1.40 / pbratio=1.30 / aq-mode=3 / aq-strength=1.00 / cutree / zone-count=0 / no-strict-cbr / qg-size=32 / no-rc-grain / qpmax=69 / qpmin=0 / no-const-vbv / sar=0 / overscan=0 / videoformat=5 / range=0 / colorprim=2 / transfer=2 / colormatrix=2 / chromaloc=0 / display-window=0 / max-cll=0,0 / min-luma=0 / max-luma=1023 / log2-max-poc-lsb=8 / vui-timing-info / vui-hrd-info / slices=1 / no-opt-qp-pps / no-opt-ref-list-length-pps / no-multi-pass-opt-rps / scenecut-bias=0.00 / no-opt-cu-delta-qp / aq-motion / no-hdr / no-hdr-opt / no-dhdr10-opt / analysis-reuse-level=5 / scale-factor=0 / refine-intra=0 / refine-inter=0 / refine-mv=0 / no-limit-sao / ctu-info=0 / no-lowpass-dct / refine-mv-type=0 / copy-pic=1
Default                                  : Yes
Forced                                   : No

Audio
ID                                       : 2
Format                                   : E-AC-3
Format/Info                              : Enhanced Audio Coding 3
Codec ID                                 : A_EAC3
Duration                                 : 59 min 19 s
Bit rate mode                            : Constant
Bit rate                                 : 640 kb/s
Channel(s)                               : 6 channels
Channel positions                        : Front: L C R, Side: L R, LFE
Sampling rate                            : 48.0 kHz
Frame rate                               : 187.500 FPS (256 SPF)
Compression mode                         : Lossy
Stream size                              : 272 MiB (24%)
Language                                 : English
Service kind                             : Complete Main
Default                                  : No
Forced                                   : No

Text #1
ID                                       : 3
Format                                   : UTF-8
Codec ID                                 : S_TEXT/UTF8
Codec ID/Info                            : UTF-8 Plain Text
Duration                                 : 55 min 4 s
Bit rate                                 : 59 b/s
Count of elements                        : 627
Stream size                              : 24.2 KiB (0%)
Language                                 : Ukrainian
Default                                  : Yes
Forced                                   : No

Text #2
ID                                       : 4
Format                                   : UTF-8
Codec ID                                 : S_TEXT/UTF8
Codec ID/Info                            : UTF-8 Plain Text
Duration                                 : 55 min 4 s
Bit rate                                 : 37 b/s
Count of elements                        : 632
Stream size                              : 14.9 KiB (0%)
Language                                 : English
Default                                  : No
Forced                                   : No
Скріншоти







Джерело:
Особиста оцінка: 10 - без зайвих вагань рекомендую всім!


Золотий реліз (завантажене не впливає на рейтинг)
 Трекер:    Зареєстрований   

Завантажити / скачати серіал українською



відео для новачків



 Зареєстрований:   2018-09-08 03:48
 Розмір:   9.23 GB 
 Оцінка серіалу:   9.2/10 (Голосів: 5)
   
VIKTOtor 
Поважний учасник


З нами з: 02.01.12
Востаннє: 28.11.20
Повідомлень: 172

2018-09-08 12:09  
А чому у постері Леґіон, а у назві релізу Легіон?
zoomymba2012 
VIP


З нами з: 08.01.15
Востаннє: 29.11.20
Повідомлень: 688

2018-09-08 18:46  
VIKTOtor написано:
А чому у постері Леґіон, а у назві релізу Легіон?

Начебто постер зробили до фінального рішення перекладу назви серіалу.
Є нові постери, вже з "Легіон". І у перекладі групи вказано як "Легіон".

Тому це скоріш за все і є прокол автору постера (типу, ну він, мабуть не знав що змінять назву).

lexxai 
Свій


З нами з: 04.02.10
Востаннє: 01.12.20
Повідомлень: 110

2018-09-11 20:10  
Legion S02 (2017)
2017 чи 2018? у Легіон (Сезон 2) / Legion (Season 2) (2018) 1080p Eng | Sub Ukr/Eng

revutsky_g 
Новенький


З нами з: 20.02.13
Востаннє: 01.12.20
Повідомлень: 2

2018-10-01 20:41  
коли буде переклад?
EvGaS 
Відео Гуртом - субтитрування
Відео Гуртом - субтитрування


З нами з: 27.02.12
Востаннє: 31.07.19
Повідомлень: 5668

2018-10-02 05:53  
revutsky_g написано:
коли буде переклад?

Так ось же він.

Ваш часовий пояс: GMT + 2 Години

Нова тема   Відповісти