Оселя зла. Колекція / Resident Evil. Collection (2002-2016) 1080p Ukr/Eng | Sub Ukr/Eng

Нові коментарі

Нова тема   Відповісти
Автор Повідомлення
staf777 
Попереджень: 1
Попереджень: 1 


З нами з: 16.11.16
Востаннє: 10.12.18
Повідомлень: 1890

2018-09-07 22:22  
Оселя зла. Колекція / Resident Evil. Collection (2002-2016) 1080p Ukr/Eng | Sub Ukr/Eng

Оселя зла. Колекція / Resident Evil. Collection (2002-2016) 1080p Ukr/Eng | Sub Ukr/Eng


Жанр: бойовик, жахи, фантастика
Кіностудія / кінокомпанія: Constantin Film Produktion GmbH, Davis-Films
Режисер: Пол Андерсон / Paul Anderson, Александр Вітт /Alexander Witt, Рассел Малкей / Russell Mulcahy
Актори: Мілла Йовович / Milla Jovovich, Мішель Родріґез / Michelle Rodriguez, Одед Фехр / Oded Fehr та інші
Тривалість: 01:40:31 | 01:33:48 | 01:34:06 | 01:36:52 | 01:35:37 | 01:46:40
Оселя (Обитель) Зла / Resident Evil (2002) 1080p 2xUkr/Eng | Sub Eng

Оселя (Обитель) Зла / Resident Evil (2002) 1080p 2xUkr/Eng | Sub Eng

Оселя зла. Колекція / Resident Evil. Collection (2002-2016) 1080p Ukr/Eng | Sub Ukr/Eng


Жанр: бойовик, жахи, фантастика
Країна: Франція, Німеччина, Великобританія



Кіностудія / кінокомпанія: Constantin Film Produktion GmbH, Davis-Films
Режисер: Пол Андерсон / Paul Anderson
Актори: Мілла Йовович / Milla Jovovich, Мішель Родріґез / Michelle Rodriguez, Ерік Мебіас / Eric Mabius, Джеймс Пьюрфой /Джеймс Пьюрфой, Мартін Крюз / Martin Crewes, Колін Селмон / Colin Salmon, Райан МакКласкі / Ryan McCluskey, Оскар Пірс / Oscar Pearce, Індра Ове / Indra Ové, Анна Болт / Anna Bolt та інші

Сюжет: Сюжет фiльму заснований на комп'ютернiй грi, яка стала одним з перших бестселерiв цього рiзновиду розваг i дочекалася чотирьох продовжень, кожне з яких продавалося мiльйонними тиражами, забезпечивши серii популярнiсть на всiх континентах. Головнi героїнi стрiчки, Елiс та Рейн, очолюють загiн командос, що повинен за три години знищити експериментальний "Т-вiрус", здатний повертати до життя мертвих, перетворюючи їх на жахливих мутантiв. Завдання виявляється надзвичайно складним, оскiльки поширенням пекельної зарази керує суперкомп'ютер "Червона королева", а на смiливцiв полює смертельно небезпечна iстота.

Тривалість: 01:40:31
Якість: 1080р
Відео:
кодек:
розмір кадру: 1920x1040
бітрейт: 16.5 Mб/с

Аудіо # 1:
мова: українська
переклад: багатоголосий закадровий, озвучений ТакТребаПродакш для
кодек: 2.0
бітрейт: 192 кб/с
ролі озвучили: Олег Стальчук, Дмитро Гаврилов і два жіночих

Аудіо # 2:
мова: українська
переклад: двоголосий закадровий, від
кодек: 5.1
бітрейт: 448 кб/с
ролі озвучили: Лариса Руснак і Олександр Ігнатуша

Аудіо # 3:
мова: англійська
переклад: оригінал
кодек: 5.1
бітрейт: 1510 кб/с

Субтитри:
мова: англійська
тип: програмні (м'які)
формат: *.srt

Субтитри (SDH):
мова: англійська
тип: програмні (м'які)
формат: *.srt
Info
Код:

General
Unique ID                   : 282672706446103799061472598953618566972 (0xD4A8C87169DE50AB9E58173BBEDBEF3C)
Complete name               : S:\Нова папка\Resident Evil (2002) 1080p [2xUA][ENG][Hurtom].
Format                      :
Format version              : Version 4 / Version 2
File size                   : 13.1 GiB
Duration                    : 1 h 40 min
Overall bit rate            : 18.6 Mb/s
Movie name                  : Resident Evil (2002) 1080p [2xUA][ENG][Hurtom]
Encoded date                : UTC 2018-09-08 05:10:24
Writing application         : v24.0.0 ('Beyond The Pale') 64-bit
Writing library             : libebml v1.3.6 + v1.4.9
Cover                       : Yes
Attachments                 : cover.jpg / xlog.txt

Video
ID                          : 1
Format                      : AVC
Format/Info                 : Advanced Video Codec
Format profile              : [email protected]
Format settings             : CABAC / 4 Ref Frames
Format settings, CABAC      : Yes
Format settings, ReFrames   : 4 frames
Codec ID                    : V_MPEG4/ISO/AVC
Duration                    : 1 h 40 min
Bit rate                    : 16.5 Mb/s
Width                       : 1 920 pixels
Height                      : 1 040 pixels
Display aspect ratio        : 1.85:1
Frame rate mode             : Constant
Frame rate                  : 23.976 (24000/1001) FPS
Color space                 : YUV
Chroma subsampling          : 4:2:0
Bit depth                   : 8 bits
Scan type                   : Progressive
Bits/(Pixel*Frame)          : 0.345
Stream size                 : 11.6 GiB (88%)
Title                       : Release for HDCLUB
Writing library             : core 124 r2197 69a0443
Encoding settings           : cabac=1 / ref=4 / deblock=1:-3:-3 / analyse=0x3:0x113 / me=umh / subme=11 / psy=1 / psy_rd=1.00:0.00 / mixed_ref=1 / me_range=48 / chroma_me=1 / trellis=2 / 8x8dct=1 / cqm=0 / deadzone=21,11 / fast_pskip=0 / chroma_qp_offset=-2 / threads=12 / sliced_threads=0 / nr=0 / decimate=0 / interlaced=0 / bluray_compat=0 / constrained_intra=0 / bframes=8 / b_pyramid=2 / b_adapt=2 / b_bias=0 / direct=3 / weightb=1 / open_gop=0 / weightp=2 / keyint=250 / keyint_min=23 / scenecut=40 / intra_refresh=0 / rc_lookahead=60 / rc=2pass / mbtree=1 / bitrate=16500 / ratetol=1.0 / qcomp=0.80 / qpmin=0 / qpmax=69 / qpstep=4 / cplxblur=20.0 / qblur=0.5 / vbv_maxrate=50000 / vbv_bufsize=62500 / nal_hrd=none / ip_ratio=1.10 / aq=2:1.00
Language                    : English
Default                     : Yes
Forced                      : No
Color range                 : Limited
Matrix coefficients         : BT.709

Audio #1
ID                          : 2
Format                      : AC-3
Format/Info                 : Audio Coding 3
Codec ID                    : A_AC3
Duration                    : 1 h 40 min
Bit rate mode               : Constant
Bit rate                    : 192 kb/s
Channel(s)                  : 2 channels
Channel positions           : Front: L R
Sampling rate               : 48.0 kHz
Frame rate                  : 31.250 FPS (1536 SPF)
Bit depth                   : 16 bits
Compression mode            : Lossy
Stream size                 : 138 MiB (1%)
Title                       : 2.0 @ 192 kbps - ICTV
Language                    : Ukrainian
Service kind                : Complete Main
Default                     : Yes
Forced                      : Yes

Audio #2
ID                          : 3
Format                      : AC-3
Format/Info                 : Audio Coding 3
Codec ID                    : A_AC3
Duration                    : 1 h 40 min
Bit rate mode               : Constant
Bit rate                    : 448 kb/s
Channel(s)                  : 6 channels
Channel positions           : Front: L C R, Side: L R, LFE
Sampling rate               : 48.0 kHz
Frame rate                  : 31.250 FPS (1536 SPF)
Bit depth                   : 16 bits
Compression mode            : Lossy
Stream size                 : 322 MiB (2%)
Title                       : [UA-DVO-1+1]
Language                    : Ukrainian
Service kind                : Complete Main
Default                     : No
Forced                      : No

Audio #3
ID                          : 4
Format                      :
Format/Info                 : Digital Theater Systems
Codec ID                    : A_DTS
Duration                    : 1 h 40 min
Bit rate mode               : Constant
Bit rate                    : 1 510 kb/s
Channel(s)                  : 6 channels
Channel positions           : Front: L C R, Side: L R, LFE
Sampling rate               : 48.0 kHz
Frame rate                  : 93.750 FPS (512 SPF)
Bit depth                   : 24 bits
Compression mode            : Lossy
Stream size                 : 1.06 GiB (8%)
Title                       : 5.1 @ 1536 kbps
Language                    : English
Default                     : No
Forced                      : No

Text #1
ID                          : 5
Format                      : UTF-8
Codec ID                    : S_TEXT/UTF8
Codec ID/Info               : UTF-8 Plain Text
Duration                    : 1 h 28 min
Bit rate                    : 32 b/s
Count of elements           : 666
Stream size                 : 20.9 KiB (0%)
Language                    : English
Default                     : No
Forced                      : No

Text #2
ID                          : 6
Format                      : UTF-8
Codec ID                    : S_TEXT/UTF8
Codec ID/Info               : UTF-8 Plain Text
Duration                    : 1 h 39 min
Bit rate                    : 37 b/s
Count of elements           : 1056
Stream size                 : 27.6 KiB (0%)
Title                       : SDH
Language                    : English
Default                     : No
Forced                      : No

Menu
00:00:00.000                : en:Chapter 1
00:08:22.585                : en:Chapter 2
00:11:00.409                : en:Chapter 3
00:19:09.940                : en:Chapter 4
00:23:49.010                : en:Chapter 5
00:29:22.469                : en:Chapter 6
00:37:51.227                : en:Chapter 7
00:41:14.555                : en:Chapter 8
00:47:11.828                : en:Chapter 9
00:52:16.591                : en:Chapter 10
01:00:47.977                : en:Chapter 11
01:08:35.694                : en:Chapter 12
01:12:05.321                : en:Chapter 13
01:18:33.667                : en:Chapter 14
01:24:22.348                : en:Chapter 15
01:30:16.160                : en:Chapter 16
Світлини






Джерело: &
Особиста оцінка: 8 - мені сподобалося
Обитель зла 2. Апокаліпсис / Resident Evil: Apocalypse (2004) 1080p Ukr/Eng | Sub Eng

Обитель зла 2. Апокаліпсис / Resident Evil: Apocalypse (2004) 1080p Ukr/Eng | Sub Eng

Оселя зла. Колекція / Resident Evil. Collection (2002-2016) 1080p Ukr/Eng | Sub Ukr/Eng

«Вона пройшла через катакомби, що кишать зомбі. Тепер на її шляху ціле місто ... »



Жанр: фантастика, бойовик, жахи
Країна: Німеччина, Канада, Франція, Великобританія



Кіностудія / кінокомпанія: Constantin Film
Режисер: Александр Вітт /Alexander Witt
Актори: Мілла Йовович / Milla Jovovich, Сієнна Гіллорі /Sienna Guillory/, Одед Фер /Oded Fehr/, Томас Кречманн /Thomas Kretschmann/, Софі Вавасо /Sophie Vavasseur/, Разаак Адоті /Razaaq Adoti/, Джаред Харріс /Jared Harris/, Майк Еппс /Mike Epps/, Сандрін Холт /Sandrine Holt/, Меттью Дж. Тейлор /Matthew G. Taylor

Сюжет: Події фільму розгортаються на вулицях Ракун-сіті, міста, що контролюється могутньою корпорацією «Амбрелла». Жахливий вiрус виривається за межi пiдземних лабораторiй. Кiлькiсть кровожерливих зомбi збiльшується у геометричнiй прогресiї, i могутня корпорацiя "Амбрелла", яка й створила пекельну заразу, блокує усi виходи з мiста i намагається знищити докази своєї причетностi до катастрофи. Пiдступнi магнати випускають у мiсто iдеальну зброю - монстра на iм'я Немезида. Єдина, хто може його зупинити, - Елiс, яка завдяки експериментам вчених з "Амбрелли" набула надлюдської сили та спритностi.

Тривалість: 01:33:48
Якість: 1080р
Відео:
кодек:
розмір кадру: 1920x800
бітрейт: 11.4 Mб/с

Аудіо # 1:
мова: українська
переклад: двоголосий закадровий записаний з також той же переклад транслювався по
кодек: 2.0
бітрейт: 192 кб/с
ролі озвучили: Юрій Гребельник та жіночий

Аудіо # 2:
мова: англійська
переклад: оригінал
кодек: 5.1
бітрейт: 1509 кб/с

Субтитри:
мова: англійська
тип: програмні (м'які)
формат: *.srt
Info
Код:

General
Unique ID                   : 132799669204421389161982407395577062855 (0x63E849342FB8BAE64EB243EBB21A65C7)
Complete name               : S:\Нова папка\Resident Evil Apocalypse (2004) 1080p [UKR_ENG] [Hurtom].
Format                      :
Format version              : Version 4 / Version 2
File size                   : 8.57 GiB
Duration                    : 1 h 33 min
Overall bit rate            : 13.1 Mb/s
Movie name                  : Resident Evil: Apocalypse (2004) 1080p [UKR_ENG] [Hurtom]
Encoded date                : UTC 2018-09-08 05:51:08
Writing application         : v24.0.0 ('Beyond The Pale') 64-bit
Writing library             : libebml v1.3.6 + v1.4.9
Cover                       : Yes
Attachments                 : cover.jpg / xlog.txt

Video
ID                          : 1
Format                      : AVC
Format/Info                 : Advanced Video Codec
Format profile              : [email protected]
Format settings             : CABAC / 5 Ref Frames
Format settings, CABAC      : Yes
Format settings, ReFrames   : 5 frames
Codec ID                    : V_MPEG4/ISO/AVC
Duration                    : 1 h 33 min
Bit rate                    : 11.4 Mb/s
Width                       : 1 920 pixels
Height                      : 800 pixels
Display aspect ratio        : 2.40:1
Frame rate mode             : Constant
Frame rate                  : 23.976 (24000/1001) FPS
Color space                 : YUV
Chroma subsampling          : 4:2:0
Bit depth                   : 8 bits
Scan type                   : Progressive
Bits/(Pixel*Frame)          : 0.309
Stream size                 : 7.45 GiB (87%)
Title                       : Release for HDCLUB
Writing library             : core 125 r2200kMod 999b753
Encoding settings           : cabac=1 / ref=5 / deblock=1:-3:-3 / analyse=0x3:0x113 / me=umh / subme=11 / psy=1 / fade_compensate=0.00 / psy_rd=1.00:0.00 / mixed_ref=1 / me_range=48 / chroma_me=1 / trellis=2 / 8x8dct=1 / cqm=0 / deadzone=21,11 / fast_pskip=1 / chroma_qp_offset=-2 / threads=12 / lookahead_threads=2 / sliced_threads=0 / nr=0 / decimate=1 / interlaced=0 / bluray_compat=0 / constrained_intra=0 / bframes=6 / b_pyramid=2 / b_adapt=2 / b_bias=0 / direct=1 / weightb=1 / open_gop=0 / weightp=2 / keyint=250 / keyint_min=23 / scenecut=40 / intra_refresh=0 / rc_lookahead=40 / rc=crf / mbtree=0 / crf=18.0000 / qcomp=0.60 / qpmin=0 / qpmax=69 / qpstep=4 / vbv_maxrate=50000 / vbv_bufsize=62500 / crf_max=0.0 / nal_hrd=none / ip_ratio=1.40 / pb_ratio=1.30 / aq=2:1.00
Language                    : English
Default                     : Yes
Forced                      : No
Color range                 : Limited
Matrix coefficients         : BT.709

Audio #1
ID                          : 2
Format                      : AC-3
Format/Info                 : Audio Coding 3
Codec ID                    : A_AC3
Duration                    : 1 h 33 min
Bit rate mode               : Constant
Bit rate                    : 192 kb/s
Channel(s)                  : 2 channels
Channel positions           : Front: L R
Sampling rate               : 48.0 kHz
Frame rate                  : 31.250 FPS (1536 SPF)
Bit depth                   : 16 bits
Compression mode            : Lossy
Stream size                 : 129 MiB (1%)
Title                       : 2.0 @ 192 kbps - ICTV
Language                    : Ukrainian
Service kind                : Complete Main
Default                     : Yes
Forced                      : Yes

Audio #2
ID                          : 3
Format                      :
Format/Info                 : Digital Theater Systems
Codec ID                    : A_DTS
Duration                    : 1 h 33 min
Bit rate mode               : Constant
Bit rate                    : 1 509 kb/s
Channel(s)                  : 6 channels
Channel positions           : Front: L C R, Side: L R, LFE
Sampling rate               : 48.0 kHz
Frame rate                  : 93.750 FPS (512 SPF)
Bit depth                   : 24 bits
Compression mode            : Lossy
Stream size                 : 1 013 MiB (12%)
Title                       : 5.1 @ 1536 kbps
Language                    : English
Default                     : No
Forced                      : No

Text
ID                          : 4
Format                      : UTF-8
Codec ID                    : S_TEXT/UTF8
Codec ID/Info               : UTF-8 Plain Text
Duration                    : 1 h 27 min
Bit rate                    : 30 b/s
Count of elements           : 649
Stream size                 : 19.4 KiB (0%)
Language                    : English
Default                     : No
Forced                      : No

Menu
00:00:00.000                : en:Chapter 1
00:05:56.355                : en:Chapter 2
00:14:52.224                : en:Chapter 3
00:19:38.051                : en:Chapter 4
00:24:04.401                : en:Chapter 5
00:30:52.934                : en:Chapter 6
00:36:15.798                : en:Chapter 7
00:42:48.315                : en:Chapter 8
00:49:02.564                : en:Chapter 9
00:56:26.508                : en:Chapter 10
01:00:40.970                : en:Chapter 11
01:07:08.858                : en:Chapter 12
01:13:13.097                : en:Chapter 13
01:18:07.057                : en:Chapter 14
01:22:26.858                : en:Chapter 15
01:24:27.854                : en:Chapter 16
Світлини





Джерело: &
Особиста оцінка: 8 - мені сподобалося
Обитель зла 3. Вимирання / Resident Evil: Extinction (2007) 1080p Ukr/Eng | Sub Eng

Обитель зла 3. Вимирання / Resident Evil: Extinction (2007) 1080p Ukr/Eng | Sub Eng

Оселя зла. Колекція / Resident Evil. Collection (2002-2016) 1080p Ukr/Eng | Sub Ukr/Eng

«На цей раз без компромісів»



Жанр: бойовик, жахи, фантастика, трилер
Країна: Франція, Австралія, Німеччина, Великобританія, США



Кіностудія / кінокомпанія: Constantin Film, Screen Gems
Режисер: Рассел Малкей / Russell Mulcahy
Актори: Мілла Йовович / Milla Jovovich, Одед Фехр /Oded Fehr/, Алі Лартер /Ali Larter/, Йен Глен /Iain Glen/, Ашанті /Ashanti/, Крістофер Іген /Christopher Egan

Сюжет: Еліс, не раз вже рятувала світ від смертельних вірусів і неминучої загибелі, знов береться за зброю. На цей раз їй доведеться зіткнутися з корпорацією «Амбрела», що розробляє безглуздий антигуманний проект. Підступні політики і прагматичні вчені намагаються знищити людей і замінити їх на більш «досконалі» створіння, заселивши Землю невразливими безсмертними клонами…

Тривалість: 01:34:06
Якість: 1080р
Відео:
кодек:
розмір кадру: 1920x804
бітрейт: 13.9 Mб/с

Аудіо # 1:
мова: українська
переклад: багатоголосий закадровий, озвучений ТакТребаПродакш на замовлення Аврора Дистрибюшн, записаний з Оселя зла. Колекція / Resident Evil. Collection (2002-2016) 1080p Ukr/Eng | Sub Ukr/Eng
кодек: 2.0
бітрейт: 192 кб/с
ролі озвучили: Олег Стальчук, Анатолій Пашнін, Юлія Перенчук і ще один жіночий

Аудіо # 2:
мова: англійська
переклад: оригінал
кодек: 5.1
бітрейт: 1509 кб/с

Субтитри:
мова: англійська
тип: програмні (м'які)
формат: *.srt
Info
Код:

General
Unique ID                   : 276649585447860628041525479978738499823 (0xD020C5A67C96867FDBB9BBF5D0CDC0EF)
Complete name               : S:\Нова папка\Resident Evil Extinction (2007) 1080p [UKR_ENG] [Hurtom].
Format                      :
Format version              : Version 4 / Version 2
File size                   : 10.3 GiB
Duration                    : 1 h 34 min
Overall bit rate            : 15.6 Mb/s
Movie name                  : Resident Evil: Extinction (2007) 1080p [UKR_ENG] [Hurtom]
Encoded date                : UTC 2018-09-08 06:38:30
Writing application         : v24.0.0 ('Beyond The Pale') 64-bit
Writing library             : libebml v1.3.6 + v1.4.9
Cover                       : Yes
Attachments                 : cover.jpg / xlog.txt

Video
ID                          : 1
Format                      : AVC
Format/Info                 : Advanced Video Codec
Format profile              : [email protected]
Format settings             : CABAC / 5 Ref Frames
Format settings, CABAC      : Yes
Format settings, ReFrames   : 5 frames
Codec ID                    : V_MPEG4/ISO/AVC
Duration                    : 1 h 34 min
Bit rate                    : 13.9 Mb/s
Width                       : 1 920 pixels
Height                      : 804 pixels
Display aspect ratio        : 2.40:1
Frame rate mode             : Constant
Frame rate                  : 23.976 (24000/1001) FPS
Color space                 : YUV
Chroma subsampling          : 4:2:0
Bit depth                   : 8 bits
Scan type                   : Progressive
Bits/(Pixel*Frame)          : 0.375
Stream size                 : 9.13 GiB (89%)
Title                       : Release for HDCLUB
Writing library             : core 125 r2200kMod 999b753
Encoding settings           : cabac=1 / ref=5 / deblock=1:-2:-2 / analyse=0x3:0x113 / me=umh / subme=11 / psy=1 / fade_compensate=0.00 / psy_rd=0.90:0.00 / mixed_ref=1 / me_range=48 / chroma_me=1 / trellis=2 / 8x8dct=1 / cqm=0 / deadzone=21,11 / fast_pskip=1 / chroma_qp_offset=-2 / threads=12 / lookahead_threads=2 / sliced_threads=0 / nr=0 / decimate=1 / interlaced=0 / bluray_compat=0 / constrained_intra=0 / bframes=8 / b_pyramid=2 / b_adapt=2 / b_bias=0 / direct=1 / weightb=1 / open_gop=0 / weightp=2 / keyint=250 / keyint_min=23 / scenecut=40 / intra_refresh=0 / rc_lookahead=40 / rc=crf / mbtree=0 / crf=18.5000 / qcomp=0.60 / qpmin=0 / qpmax=69 / qpstep=4 / vbv_maxrate=50000 / vbv_bufsize=62500 / crf_max=0.0 / nal_hrd=none / ip_ratio=1.10 / pb_ratio=1.10 / aq=3:0.80
Language                    : English
Default                     : Yes
Forced                      : No
Color range                 : Limited
Matrix coefficients         : BT.709

Audio #1
ID                          : 2
Format                      : AC-3
Format/Info                 : Audio Coding 3
Codec ID                    : A_AC3
Duration                    : 1 h 34 min
Bit rate mode               : Constant
Bit rate                    : 192 kb/s
Channel(s)                  : 2 channels
Channel positions           : Front: L R
Sampling rate               : 48.0 kHz
Frame rate                  : 31.250 FPS (1536 SPF)
Bit depth                   : 16 bits
Compression mode            : Lossy
Stream size                 : 129 MiB (1%)
Title                       : 2.0 @ 192 kbps - ICTV
Language                    : Ukrainian
Service kind                : Complete Main
Default                     : Yes
Forced                      : Yes

Audio #2
ID                          : 3
Format                      :
Format/Info                 : Digital Theater Systems
Codec ID                    : A_DTS
Duration                    : 1 h 34 min
Bit rate mode               : Constant
Bit rate                    : 1 509 kb/s
Channel(s)                  : 6 channels
Channel positions           : Front: L C R, Side: L R, LFE
Sampling rate               : 48.0 kHz
Frame rate                  : 93.750 FPS (512 SPF)
Bit depth                   : 24 bits
Compression mode            : Lossy
Stream size                 : 1 016 MiB (10%)
Title                       : 5.1 @ 1536 kbps
Language                    : English
Default                     : No
Forced                      : No

Text
ID                          : 4
Format                      : UTF-8
Codec ID                    : S_TEXT/UTF8
Codec ID/Info               : UTF-8 Plain Text
Duration                    : 1 h 28 min
Bit rate                    : 27 b/s
Count of elements           : 562
Stream size                 : 17.7 KiB (0%)
Language                    : English
Default                     : No
Forced                      : No

Menu
00:00:00.000                : en:Chapter 1
00:07:32.368                : en:Chapter 2
00:13:39.318                : en:Chapter 3
00:18:25.438                : en:Chapter 4
00:25:13.387                : en:Chapter 5
00:30:07.806                : en:Chapter 6
00:32:17.727                : en:Chapter 7
00:38:53.498                : en:Chapter 8
00:44:21.784                : en:Chapter 9
00:50:56.053                : en:Chapter 10
00:55:23.654                : en:Chapter 11
01:01:46.161                : en:Chapter 12
01:08:50.376                : en:Chapter 13
01:14:42.770                : en:Chapter 14
01:19:13.247                : en:Chapter 15
01:24:15.550                : en:Chapter 16
Світлини





Джерело: &
Особиста оцінка: 8 - мені сподобалося
Оселя зла 4. Потойбічне життя / Resident Evil: Afterlife (2010) 1080p Ukr/Eng | Sub Eng

Оселя зла 4. Потойбічне життя / Resident Evil: Afterlife (2010) 1080p Ukr/Eng | Sub Eng

Оселя зла. Колекція / Resident Evil. Collection (2002-2016) 1080p Ukr/Eng | Sub Ukr/Eng

«Випробуйте новий вимір зла»



Жанр: екшн, жахи, фантастика, трилер
Країна: Німеччина, Франція, Велика Британія



Кіностудія / кінокомпанія: Impact Pictures, Davis-Films, Constantin Film Produktion
Режисер: Пол У.С Андерсон
Актори: Мілла Йовович / Milla Jovovich, Алі Лартер /Ali Larter, Кім Коутс / Kim Coates, Шон Робертс / Shawn Roberts, Серджіо Періс-Менчета / Sergio Peris-Mencheta, Спенсер Лок / Spencer Locke та інші

Сюжет: Еліс продовжує свій шлях у світі, ураженому вірусною інфекцією, що перетворює людей в живих мерців. Героїня шукає живих людей, щоб вивести їх в безпечне місце. Її смертельна битва з корпорацією Амбрелла виходить на новий рівень, коли вона раптом одержує несподівану допомогу від старого друга. Він обіцяє привести Еліс у безпечну зону в Лос-Анджелесі, але як тільки вони потрапляють до міста, то бачать тисячі заражених і опиняються у смертельній пастці...

Тривалість: 01:36:52
Якість: 1080р
Відео:
кодек:
розмір кадру: 1920 x 800
бітрейт: 10000 кб/с

Аудіо # 1:
мова: українська
переклад: професійний дубльований
кодек: 5.1
бітрейт: 448 кб/с
Інформація про дубляж:
Фільм надано компанією Columbia Pictures дубльовано LeDoyen Studio на замовлення B&H Film Distribution
Переклад: Федора Сидорука
Режисер дубляжу: Анна Пащенко
Звукорежисер: Дмитро Мялковський
Ролі дублювали: Мілла Йовович - Катерина Коновалова, Вентвор Міллер/Кріс Редфілд - Іван Розін, Світлана Шекера, Шон Робертс/Альберт Вескер - Андрій Мостренко, Борис Коджо/Лютер - Дмитро Гаврилов, Кім Коатс/Беннет - Дмитро Завадський, Ксенія Пасарар, назву фільму і написи - Олександр Ігнатуша та інш.
Аудіо # 2:
мова: англійська
переклад: оригінал
кодек: 5.1
бітрейт: 1509 кб/с

Субтитри:
мова: англійська
тип: програмні (м'які)
формат: *.srt
Info
Код:

General
Unique ID                   : 61346682656892910534439623176645379753 (0x2E26F0F9CEF0E084B8751781B25206A9)
Complete name               : S:\Нова папка\Resident Evil Afterlife (2010) 1080p [UKR_ENG] [Hurtom].
Format                      :
Format version              : Version 4 / Version 2
File size                   : 8.09 GiB
Duration                    : 1 h 36 min
Overall bit rate            : 12.0 Mb/s
Movie name                  : Resident Evil: Afterlife (2010) 1080p [UKR_ENG] [Hurtom]
Encoded date                : UTC 2018-09-08 07:12:32
Writing application         : v24.0.0 ('Beyond The Pale') 64-bit
Writing library             : libebml v1.3.6 + v1.4.9
Cover                       : Yes
Attachments                 : cover.jpg

Video
ID                          : 1
Format                      : AVC
Format/Info                 : Advanced Video Codec
Format profile              : [email protected]
Format settings             : CABAC / 5 Ref Frames
Format settings, CABAC      : Yes
Format settings, ReFrames   : 5 frames
Codec ID                    : V_MPEG4/ISO/AVC
Duration                    : 1 h 36 min
Bit rate                    : 10 000 kb/s
Width                       : 1 920 pixels
Height                      : 800 pixels
Display aspect ratio        : 2.40:1
Frame rate mode             : Constant
Frame rate                  : 23.976 (24000/1001) FPS
Color space                 : YUV
Chroma subsampling          : 4:2:0
Bit depth                   : 8 bits
Scan type                   : Progressive
Bits/(Pixel*Frame)          : 0.272
Stream size                 : 6.76 GiB (84%)
Title                       : Resident Evilc Afterlife (2010)
Writing library             : core 108 r1790 8eaf8a6
Encoding settings           : cabac=1 / ref=5 / deblock=1:-3:-3 / analyse=0x3:0x113 / me=tesa / subme=10 / psy=1 / psy_rd=1.00:0.00 / mixed_ref=1 / me_range=16 / chroma_me=1 / trellis=2 / 8x8dct=1 / cqm=0 / deadzone=21,11 / fast_pskip=0 / chroma_qp_offset=-2 / threads=12 / sliced_threads=0 / nr=0 / decimate=0 / interlaced=0 / constrained_intra=0 / bframes=8 / b_pyramid=2 / b_adapt=2 / b_bias=0 / direct=3 / weightb=1 / open_gop=0 / weightp=2 / keyint=250 / keyint_min=23 / scenecut=40 / intra_refresh=0 / rc=2pass / mbtree=0 / bitrate=10000 / ratetol=1.0 / qcomp=0.60 / qpmin=10 / qpmax=51 / qpstep=4 / cplxblur=20.0 / qblur=0.5 / ip_ratio=1.40 / pb_ratio=1.30 / aq=1:1.00 / zones=7000,7950,b=1.2/54961,67690,b=1.2/72741,75672,b=1.2/77967,78531,b=1.2/78903,83482,b=1.2/84176,84557,b=1.2/98237,100070,b=1.2
Language                    : English
Default                     : Yes
Forced                      : No

Audio #1
ID                          : 2
Format                      : AC-3
Format/Info                 : Audio Coding 3
Codec ID                    : A_AC3
Duration                    : 1 h 36 min
Bit rate mode               : Constant
Bit rate                    : 448 kb/s
Channel(s)                  : 6 channels
Channel positions           : Front: L C R, Side: L R, LFE
Sampling rate               : 48.0 kHz
Frame rate                  : 31.250 FPS (1536 SPF)
Bit depth                   : 16 bits
Compression mode            : Lossy
Stream size                 : 310 MiB (4%)
Title                       : 5.1 @ 448 kbps
Language                    : Ukrainian
Service kind                : Complete Main
Default                     : Yes
Forced                      : Yes

Audio #2
ID                          : 3
Format                      :
Format/Info                 : Digital Theater Systems
Codec ID                    : A_DTS
Duration                    : 1 h 36 min
Bit rate mode               : Constant
Bit rate                    : 1 509 kb/s
Channel(s)                  : 6 channels
Channel positions           : Front: L C R, Side: L R, LFE
Sampling rate               : 48.0 kHz
Frame rate                  : 93.750 FPS (512 SPF)
Bit depth                   : 24 bits
Compression mode            : Lossy
Stream size                 : 1.02 GiB (13%)
Title                       : 5.1 @ 1536 kbps
Language                    : English
Default                     : No
Forced                      : No

Text
ID                          : 4
Format                      : UTF-8
Codec ID                    : S_TEXT/UTF8
Codec ID/Info               : UTF-8 Plain Text
Duration                    : 1 h 32 min
Bit rate                    : 27 b/s
Count of elements           : 652
Stream size                 : 18.8 KiB (0%)
Language                    : English
Default                     : No
Forced                      : No

Menu
00:00:00.000                : en:Chapter 1
00:07:51.303                : en:Chapter 2
00:14:04.551                : en:Chapter 3
00:19:21.367                : en:Chapter 4
00:25:23.938                : en:Chapter 5
00:30:07.221                : en:Chapter 6
00:35:08.188                : en:Chapter 7
00:41:51.090                : en:Chapter 8
00:47:07.239                : en:Chapter 9
00:53:41.467                : en:Chapter 10
01:00:53.939                : en:Chapter 11
01:07:58.532                : en:Chapter 12
01:14:07.984                : en:Chapter 13
01:17:54.711                : en:Chapter 14
01:23:39.012                : en:Chapter 15
01:27:24.488                : en:Chapter 16
Світлини





Джерело: &
Особиста оцінка: 6 - третій сорт - не брак
Оселя зла: Відплата / Resident Evil: Retribution (2012) 1080p Ukr/Eng | Sub Eng

Оселя зла: Відплата / Resident Evil: Retribution (2012) 1080p Ukr/Eng | Sub Eng

Оселя зла. Колекція / Resident Evil. Collection (2002-2016) 1080p Ukr/Eng | Sub Ukr/Eng

«Зло стає глобальним»



Жанр: екшн, жахи, фантастика
Країна: США, Німеччина



Кіностудія / кінокомпанія: Screen Gems, Davis Films/Impact Pictures, Constantin Film International
Режисер: Пол Андерсон
Актори: Мілла Йовович / Milla Jovovich, Джейсон Айзекс, Мішель Родрігес, Сієнна Гіллорі та інші

Сюжет: Смертельний T-вірус, створений в лабораторіях корпорації «Амбрелла», продовжує захоплювати Землю, перетворюючи світове населення в легіони зомбі, що пожирають плоть...

Тривалість: 01:35:37
Якість: 1080р
Відео:
кодек:
розмір кадру: 1920 x 800
бітрейт: 9695 кб/с

Аудіо # 1:
мова: українська
переклад: професійний дубльований
кодек: 5.1
бітрейт: 640 кб/с

Аудіо # 2:
мова: англійська
переклад: оригінал
кодек: 5.1
бітрейт: 640 кб/с

Субтитри:
мова: англійська
тип: програмні (м'які)
формат: *.srt
Info
Код:

General
Unique ID                   : 115017862606797609373727175129458354698 (0x5687A27366BED2B0A73433FFDD312A0A)
Complete name               : S:\Нова папка\Resident Evil Retribution (2012) 1080p [UKR_ENG] [Hurtom].
Format                      :
Format version              : Version 4 / Version 2
File size                   : 7.37 GiB
Duration                    : 1 h 35 min
Overall bit rate            : 11.0 Mb/s
Movie name                  : Resident Evil: Retribution (2012) 1080p [UKR_ENG] [Hurtom]
Encoded date                : UTC 2018-09-08 13:50:13
Writing application         : v24.0.0 ('Beyond The Pale') 64-bit
Writing library             : libebml v1.3.6 + v1.4.9
Cover                       : Yes
Attachments                 : cover.jpg

Video
ID                          : 1
Format                      : AVC
Format/Info                 : Advanced Video Codec
Format profile              : [email protected]
Format settings             : CABAC / 5 Ref Frames
Format settings, CABAC      : Yes
Format settings, ReFrames   : 5 frames
Codec ID                    : V_MPEG4/ISO/AVC
Duration                    : 1 h 35 min
Bit rate                    : 9 695 kb/s
Width                       : 1 920 pixels
Height                      : 800 pixels
Display aspect ratio        : 2.40:1
Frame rate mode             : Constant
Frame rate                  : 23.976 (24000/1001) FPS
Color space                 : YUV
Chroma subsampling          : 4:2:0
Bit depth                   : 8 bits
Scan type                   : Progressive
Bits/(Pixel*Frame)          : 0.263
Stream size                 : 6.52 GiB (88%)
Title                       : Release by AlexKa
Writing library             : core 142 r2389 956c8d8
Encoding settings           : cabac=1 / ref=5 / deblock=1:-3:-3 / analyse=0x3:0x133 / me=umh / subme=11 / psy=1 / psy_rd=1.00:0.00 / mixed_ref=1 / me_range=32 / chroma_me=1 / trellis=2 / 8x8dct=1 / cqm=0 / deadzone=21,11 / fast_pskip=0 / chroma_qp_offset=-2 / threads=12 / lookahead_threads=2 / sliced_threads=0 / nr=0 / decimate=1 / interlaced=0 / bluray_compat=0 / constrained_intra=0 / bframes=8 / b_pyramid=2 / b_adapt=2 / b_bias=0 / direct=3 / weightb=1 / open_gop=0 / weightp=2 / keyint=240 / keyint_min=23 / scenecut=40 / intra_refresh=0 / rc=2pass / mbtree=0 / bitrate=9695 / ratetol=1.0 / qcomp=0.60 / qpmin=0 / qpmax=69 / qpstep=4 / cplxblur=20.0 / qblur=0.5 / ip_ratio=1.40 / pb_ratio=1.30 / aq=1:1.00
Language                    : English
Default                     : Yes
Forced                      : No

Audio #1
ID                          : 2
Format                      : AC-3
Format/Info                 : Audio Coding 3
Codec ID                    : A_AC3
Duration                    : 1 h 35 min
Bit rate mode               : Constant
Bit rate                    : 640 kb/s
Channel(s)                  : 6 channels
Channel positions           : Front: L C R, Side: L R, LFE
Sampling rate               : 48.0 kHz
Frame rate                  : 31.250 FPS (1536 SPF)
Bit depth                   : 16 bits
Compression mode            : Lossy
Stream size                 : 438 MiB (6%)
Title                       : 5.1 @ 640 kbps -  BD CEE
Language                    : Ukrainian
Service kind                : Complete Main
Default                     : Yes
Forced                      : Yes

Audio #2
ID                          : 3
Format                      : AC-3
Format/Info                 : Audio Coding 3
Codec ID                    : A_AC3
Duration                    : 1 h 35 min
Bit rate mode               : Constant
Bit rate                    : 640 kb/s
Channel(s)                  : 6 channels
Channel positions           : Front: L C R, Side: L R, LFE
Sampling rate               : 48.0 kHz
Frame rate                  : 31.250 FPS (1536 SPF)
Bit depth                   : 16 bits
Compression mode            : Lossy
Stream size                 : 438 MiB (6%)
Title                       : Eng
Language                    : English
Service kind                : Complete Main
Default                     : No
Forced                      : No

Text
ID                          : 4
Format                      : UTF-8
Codec ID                    : S_TEXT/UTF8
Codec ID/Info               : UTF-8 Plain Text
Duration                    : 1 h 20 min
Bit rate                    : 26 b/s
Count of elements           : 609
Stream size                 : 15.8 KiB (0%)
Title                       : Eng
Language                    : English
Default                     : No
Forced                      : No

Menu
00:00:00.000                : :Chapter 01
00:07:43.045                : :Chapter 02
00:14:32.538                : :Chapter 03
00:21:38.839                : :Chapter 04
00:25:39.329                : :Chapter 05
00:29:31.186                : :Chapter 06
00:34:16.846                : :Chapter 07
00:39:14.769                : :Chapter 08
00:45:29.435                : :Chapter 09
00:50:27.441                : :Chapter 10
00:54:42.070                : :Chapter 11
01:00:14.861                : :Chapter 12
01:05:38.476                : :Chapter 13
01:11:22.903                : :Chapter 14
01:16:15.571                : :Chapter 15
01:21:29.384                : :Chapter 16
Світлини





Джерело: &
Особиста оцінка: 6 - третій сорт - не брак
Оселя зла: Фінальна битва / Resident Evil: The Final Chapter (2016) 1080p Ukr/Eng | Sub Ukr/Eng
Оселя зла: Фінальна битва / Resident Evil: The Final Chapter (2016) 1080p Ukr/Eng | Sub Ukr/Eng

Оселя зла. Колекція / Resident Evil. Collection (2002-2016) 1080p Ukr/Eng | Sub Ukr/Eng

«Мене звати Еліс. І це кінець моєї історії.»



Жанр: трилер, фантастика, жахи, бойовик
Країна: Німеччина, Австралія, Канада, Франція



Кінокомпанія: Capcom Entertainment, Impact Pictures, Screen Gems
Режисер: Пол У. С. Андерсон
Актори: Мілла Йовович, Рубі Роуз, Елі Лартер, Ієн Глен, Вільям Леві, Шон Робертс, Рола, Оуен Мекен

Сюжет:
Еліс продовжує свою боротьбу з ворожою системою корпорації з допомогою своїх друзів: Джилл Валентайн, Ада Вонг, Леон Скотт Кеннеді і Беккі, продовжуючи непростий союз з колишнім головою — Альбертом Вескером. По дорозі вони возз'єднаються з колишніми захопленими товаришами: Крісом, Клер і Кей-Март. Їх епічна битва приведе їх туди, де все й почалося, в темний особняк, побудований засновником Оузвелом Спенсером.


Тривалість: 01:46:40
Якість: 1080p

Відео:
кодек:
розмір кадру: 1920 x 800
бітрейт: 13.6 Mб/с

Аудіо # 1:
мова: українська
переклад: професійний дубльований
кодек: 2.0
бітрейт: 192 кб/с

Аудіо # 2:
мова: англійська
переклад: оригінал
кодек: 5.1
бітрейт: 1509 кб/с

Субтитри (Forced, Full):
мова: українська
тип: програмні (м'які)
формат: *.srt

Субтитри:
мова: англійська
тип: програмні (м'які)
формат: *.srt

Скріншоти




Info
Код:
General
Unique ID                   : 275858174011660636037621481106194203377 (0xCF885A0DD0B52505F0049B7ECC4682F1)
Complete name               : S:\Resident Evil. Collection (2002-2016) 1080p [UKR_ENG] [Hurtom]\Resident Evil The Final Chapter (2016) 1080p [UKR_ENG] [Hurtom].
Format                      :
Format version              : Version 4 / Version 2
File size                   : 11.4 GiB
Duration                    : 1 h 46 min
Overall bit rate            : 15.3 Mb/s
Movie name                  : Resident Evil: The Final Chapter (2016) 1080p [UKR_ENG] [Hurtom]
Encoded date                : UTC 2018-09-08 14:33:36
Writing application         : v24.0.0 ('Beyond The Pale') 64-bit
Writing library             : libebml v1.3.6 + v1.4.9
Cover                       : Yes
Attachments                 : cover

Video
ID                          : 1
Format                      : AVC
Format/Info                 : Advanced Video Codec
Format profile              : [email protected]
Format settings             : CABAC / 5 Ref Frames
Format settings, CABAC      : Yes
Format settings, ReFrames   : 5 frames
Codec ID                    : V_MPEG4/ISO/AVC
Duration                    : 1 h 46 min
Bit rate                    : 13.6 Mb/s
Width                       : 1 920 pixels
Height                      : 800 pixels
Display aspect ratio        : 2.40:1
Frame rate mode             : Constant
Frame rate                  : 23.976 (24000/1001) FPS
Color space                 : YUV
Chroma subsampling          : 4:2:0
Bit depth                   : 8 bits
Scan type                   : Progressive
Bits/(Pixel*Frame)          : 0.370
Stream size                 : 10.2 GiB (89%)
Writing library             : core 148 r2705+54 9f484c1 t_mod_Custom [[email protected] X86_64]
Encoding settings           : cabac=1 / ref=5 / deblock=1:-3:-3 / analyse=0x3:0x133 / me=umh / subme=11 / psy=1 / fade_compensate=0.00 / psy_rd=1.05:0.00 / mixed_ref=1 / me_range=32 / chroma_me=1 / trellis=2 / 8x8dct=1 / cqm=0 / deadzone=21,11 / fast_pskip=0 / chroma_qp_offset=-2 / threads=12 / lookahead_threads=2 / sliced_threads=0 / nr=0 / decimate=0 / interlaced=0 / bluray_compat=0 / constrained_intra=0 / fgo=0 / bframes=8 / b_pyramid=2 / b_adapt=2 / b_bias=0 / direct=3 / weightb=1 / open_gop=0 / weightp=2 / keyint=250 / keyint_min=23 / scenecut=40 / intra_refresh=0 / rc_lookahead=60 / rc=crf / mbtree=0 / crf=15.2000 / qcomp=0.65 / qpmin=0:0:0 / qpmax=69:69:69 / qpstep=4 / vbv_maxrate=62500 / vbv_bufsize=78125 / crf_max=0.0 / nal_hrd=none / filler=0 / ip_ratio=1.30 / pb_ratio=1.20 / aq=3:0.75 / aq-sensitivity=10.00 / aq-factor=1.00:1.00:1.00 / aq2=0 / aq3=0 / zones=803,1054,crf=13.5/4106,4116,crf=13.5/4214,4259,crf=13.5/4286,4362,crf=13.5/7822,8015,crf=12.5/10125,10133,crf=13/13162,13197,crf=13/38016,38029,crf=13/38409,38419,crf=13/38925,39152,crf=13/42228,42560,crf=12.5/45950,48220,crf=14.7/52591,52613,crf=13/54455,54472,crf=13/57000,57017,crf=13/62624,62677,crf=11/72213,72223,crf=13/72965,73016,crf=11.5/73054,73093,crf=11.5/73117,73164,crf=12/73449,73644,crf=13/73805,73839,crf=13/80735,81144,crf=14.2/81145,81316,crf=12.5/81317,82246,crf=14.2/82247,82306,crf=12.5/82307,82490,crf=14.2/85093,85109,crf=14/87006,87037,crf=13/92162,92198,crf=13/92584,92594,crf=11.5/95931,95961,crf=12.5/103793,103807,crf=12/140960,153455,crf=18
Language                    : English
Default                     : Yes
Forced                      : No
Color range                 : Limited
Matrix coefficients         : BT.709

Audio #1
ID                          : 2
Format                      : AC-3
Format/Info                 : Audio Coding 3
Codec ID                    : A_AC3
Duration                    : 1 h 46 min
Bit rate mode               : Constant
Bit rate                    : 192 kb/s
Channel(s)                  : 2 channels
Channel positions           : Front: L R
Sampling rate               : 48.0 kHz
Frame rate                  : 31.250 FPS (1536 SPF)
Bit depth                   : 16 bits
Compression mode            : Lossy
Stream size                 : 146 MiB (1%)
Title                       : 2.0 @ 192 kbps
Language                    : Ukrainian
Service kind                : Complete Main
Default                     : Yes
Forced                      : Yes

Audio #2
ID                          : 3
Format                      :
Format/Info                 : Digital Theater Systems
Codec ID                    : A_DTS
Duration                    : 1 h 46 min
Bit rate mode               : Constant
Bit rate                    : 1 509 kb/s
Channel(s)                  : 6 channels
Channel positions           : Front: L C R, Side: L R, LFE
Sampling rate               : 48.0 kHz
Frame rate                  : 93.750 FPS (512 SPF)
Bit depth                   : 16 bits
Compression mode            : Lossy
Stream size                 : 1.12 GiB (10%)
Language                    : English
Default                     : No
Forced                      : No

Text #1
ID                          : 4
Format                      : UTF-8
Codec ID                    : S_TEXT/UTF8
Codec ID/Info               : UTF-8 Plain Text
Duration                    : 1 h 36 min
Bit rate                    : 0 b/s
Count of elements           : 16
Stream size                 : 665 Bytes (0%)
Title                       : Forced
Language                    : Ukrainian
Default                     : Yes
Forced                      : Yes

Text #2
ID                          : 5
Format                      : UTF-8
Codec ID                    : S_TEXT/UTF8
Codec ID/Info               : UTF-8 Plain Text
Duration                    : 1 h 45 min
Bit rate                    : 50 b/s
Count of elements           : 854
Stream size                 : 38.7 KiB (0%)
Title                       : Full
Language                    : Ukrainian
Default                     : No
Forced                      : No

Text #3
ID                          : 6
Format                      : UTF-8
Codec ID                    : S_TEXT/UTF8
Codec ID/Info               : UTF-8 Plain Text
Duration                    : 1 h 45 min
Bit rate                    : 31 b/s
Count of elements           : 818
Stream size                 : 24.4 KiB (0%)
Language                    : English
Default                     : No
Forced                      : No

Menu
00:00:00.000                : en:00:00:00.000
00:05:39.673                : en:00:05:39.673
00:11:18.177                : en:00:11:18.177
00:17:00.102                : en:00:17:00.102
00:22:36.146                : en:00:22:36.146
00:27:21.932                : en:00:27:21.932
00:33:38.475                : en:00:33:38.475
00:40:47.612                : en:00:40:47.612
00:46:36.127                : en:00:46:36.127
00:53:18.779                : en:00:53:18.779
01:03:18.670                : en:01:03:18.670
01:10:47.869                : en:01:10:47.869
01:15:37.575                : en:01:15:37.575
01:22:57.806                : en:01:22:57.806
01:28:32.891                : en:01:28:32.891
01:35:07.452                : en:01:35:07.452
За доріжку і субтитри подяка пану Ash61

Джерело: &
Особиста оцінка: 0 - не дивився
Подяка dvorsky та robotron005, Merdiff, karvai0, MAKAPOHHIK, Technomate за звукозапис з ТБ,
за доріжку і субтитри до останньої частини подяка пану Ash61
Подяка hellforces та Skiff за українізацію постерів.


Золотий реліз (завантажене не впливає на рейтинг)
 Трекер:    Зареєстрований   

Завантажити / скачати фільм українською



відео для новачків



 Зареєстрований:   2018-09-08 18:06
 Розмір:   58.8 GB 
 Оцінка фільму:   7.7/10 (Голосів: 6)
   
Roman7Fedorak 
Свій


З нами з: 30.03.12
Востаннє: 10.12.18
Повідомлень: 94

2018-09-08 11:45  
у мене є така колекція Happy
bot 
робот


З нами з: 30.09.07
Востаннє: 26.05.05
Повідомлень: 20326

2018-09-08 18:05  
Тему перенесено з Анонси релізів до форуму Фільми в HD


staf777

Ваш часовий пояс: GMT + 2 Години

Нова тема   Відповісти