Містер Мерседес (Сезон 2, Серії 1-5) / Mr. Mercedes (Season 2, Episodes 1-5) (2018) 720p Eng | sub Ukr

Нові коментарі

Нова тема   Відповісти
Автор Повідомлення
pskrm 
Свій


З нами з: 04.03.17
Востаннє: 21.05.19
Повідомлень: 91

2018-09-07 23:08  
Містер Мерседес (Сезон 2, Серії 1-5) / Mr. Mercedes (Season 2, Episodes 1-5) (2018) 720p Eng | sub Ukr

Містер Мерседес (Сезон 2, Серії 1-5) / Mr. Mercedes (Season 2, Episodes 1-5) (2018) 720p Eng | sub Ukr


Жанр: трилер
Країна: США



Кінокомпанія: Audience Network
Режисер: Джек Бендер
Актори: Брендан Ґлісон, Гаррі Тредевей, Келлі Лінч

Сюжет:
Колишній полісмен Білл Годжес вийшов на пенсію в той же час, коли в місті сталося страшне масове вбивство: невідомий чоловік за кермом автомобіля Мерседес в'їхав в натовп людей. Справа так і залишилася нерозкритою, але за два роки маніяк, який хотів визнання, кинув Біллу виклик. Знайти справжнього вбивцю Біллу допомагають чорношкірий підліток Джерон, який зламує сайти. Білл знаходить чоловіка на ім'я Брейді Гартсфілд, який живе з матір'ю-алкоголічкою, і розуміє, що саме Брейді скоїв вбивство та готовий на більші злочини. Під час погоні Гартсфілда поранили, він впав в кому, однак скоро почав прокидатися.


Тривалість: 01:00:00
Перелік серій

01. Missed You / Я сумував
02. Let's Go Roaming / Нумо блукати
03. You Can Go Home Now / Можеш повернутися додому
04. Motherboard / Материнська плата
05. Andale / Поквапся
Якість: 720p
Відео:
кодек:
розмір кадру: 1280 х 720
бітрейт: 2838 кб/с

Аудіо:
мова: англійська
переклад: оригінал
кодек: 2.0
бітрейт: 160 кб/с

Субтитри:
мова: українська
тип: програмні (м'які)
формат: *.srt

Субтитри: власний переклад
Info

General
Complete name : C:\Files\TBA\MrMercedes\MrMercedes.Season.2\MrMercedes.s02e01.mp4
Format : MPEG-4
Format profile : Base Media / Version 2
Codec ID : mp42 (isom/iso2/avc1/mp41)
File size : 1.26 GiB
Duration : 59 min 58 s
Overall bit rate mode : Variable
Overall bit rate : 3 005 kb/s
Encoded date : UTC 2018-09-06 21:22:34
Tagged date : UTC 2018-09-06 21:22:34
Writing application : HandBrake 1.1.0 2018040700

Video
ID : 1
Format : AVC
Format/Info : Advanced Video Codec
Format profile : [email protected]
Format settings : CABAC / 5 Ref Frames
Format settings, CABAC : Yes
Format settings, RefFrames : 5 frames
Codec ID : avc1
Codec ID/Info : Advanced Video Coding
Duration : 59 min 58 s
Bit rate : 2 838 kb/s
Width : 1 280 pixels
Height : 720 pixels
Display aspect ratio : 16:9
Frame rate mode : Variable
Frame rate : 23.976 (24000/1001) FPS
Minimum frame rate : 23.974 FPS
Maximum frame rate : 23.981 FPS
Color space : YUV
Chroma subsampling : 4:2:0
Bit depth : 8 bits
Scan type : Progressive
Bits/(Pixel*Frame) : 0.128
Stream size : 1.19 GiB (94%)
Writing library : core 155 r2893 b00bcaf
Encoding settings : cabac=1 / ref=5 / deblock=1:0:0 / analyse=0x1:0x111 / me=hex / subme=8 / psy=1 / psy_rd=1.00:0.00 / mixed_ref=1 / me_range=16 / chroma_me=1 / trellis=2 / 8x8dct=0 / cqm=0 / deadzone=21,11 / fast_pskip=1 / chroma_qp_offset=-2 / threads=6 / lookahead_threads=1 / sliced_threads=0 / nr=0 / decimate=1 / interlaced=0 / bluray_compat=0 / constrained_intra=0 / bframes=3 / b_pyramid=2 / b_adapt=1 / b_bias=0 / direct=3 / weightb=1 / open_gop=0 / weightp=2 / keyint=240 / keyint_min=24 / scenecut=40 / intra_refresh=0 / rc_lookahead=50 / rc=crf / mbtree=1 / crf=15.0 / qcomp=0.60 / qpmin=0 / qpmax=69 / qpstep=4 / vbv_maxrate=20000 / vbv_bufsize=25000 / crf_max=0.0 / nal_hrd=none / filler=0 / ip_ratio=1.40 / aq=1:1.00
Encoded date : UTC 2018-09-06 21:22:34
Tagged date : UTC 2018-09-06 21:22:34
Color range : Limited
Color primaries : BT.709
Transfer characteristics : BT.709
Matrix coefficients : BT.709
Codec configuration box : avcC

Audio
ID : 2
Format : LC
Format/Info : Advanced Audio Codec Low Complexity
Codec ID : mp4a-40-2
Duration : 59 min 58 s
Bit rate mode : Variable
Bit rate : 160 kb/s
Channel(s) : 2 channels
Channel layout : L R
Sampling rate : 48.0 kHz
Frame rate : 46.875 FPS (1024 SPF)
Compression mode : Lossy
Stream size : 68.8 MiB (5%)
Title : Stereo / Stereo
Language : English
Default : Yes
Alternate group : 1
Encoded date : UTC 2018-09-06 21:22:34
Tagged date : UTC 2018-09-06 21:22:34

Text
ID : 3
Format : Timed Text
Muxing mode : sbtl
Codec ID : tx3g
Duration : 57 min 54 s
Bit rate mode : Variable
Bit rate : 75 b/s
Stream size : 31.7 KiB (0%)
Language : Ukrainian
Default : Yes
Forced : No
Alternate group : 3
Encoded date : UTC 2018-09-06 21:22:34
Tagged date : UTC 2018-09-06 21:22:34
Скріншоти








Джерело:
Особиста оцінка: 9 - давно не бачив настільки якісне кіно

Rolleyes (1)


Золотий реліз (завантажене не впливає на рейтинг)
 Трекер:    Зареєстрований   

Завантажити / скачати серіал українською



відео для новачків



 Зареєстрований:   2018-11-17 17:02
 Розмір:   5.81 GB 
 Оцінка серіалу:   10/10 (Голосів: 21)
   
ambroziy27 
Новенький


З нами з: 23.01.12
Востаннє: 21.05.19
Повідомлень: 4

2018-09-07 23:15  
Неперевершена гра Гаррі Тредевея...
igor911 
Модератор відео


З нами з: 18.01.08
Востаннє: 22.05.19
Повідомлень: 12521

2018-09-08 00:07  
pskrm, замініть скріншоти - вони мають бути у форматі png та оригінального розміру (1280х720, у вас 1280х719).
pskrm 
Свій


З нами з: 04.03.17
Востаннє: 21.05.19
Повідомлень: 91

2018-09-20 01:07  
Реліз оновлено!

Додано 2 серію!

pskrm 
Свій


З нами з: 04.03.17
Востаннє: 21.05.19
Повідомлень: 91

2018-09-26 23:38  
Реліз оновлено!

Додано 3 серію!

15kgS3 
Частий відвідувач


З нами з: 29.07.11
Востаннє: 21.05.19
Повідомлень: 34

2018-09-28 15:27  
В описі сюжету слово "взламує" - українською зламує.
samoilenko1roman 
Новенький


З нами з: 11.12.09
Востаннє: 20.05.19
Повідомлень: 20

2018-09-30 15:03  
за романом Кінга "Містер Мерседес"
pskrm 
Свій


З нами з: 04.03.17
Востаннє: 21.05.19
Повідомлень: 91

2018-10-14 14:33  
Реліз оновлено!

Додано 4 серію!

pvm 
Поважний учасник


З нами з: 05.03.10
Востаннє: 29.12.18
Повідомлень: 215

2018-11-15 02:44  
samoilenko1roman
за романом Кінга "Містер Мерседес"

Ні, за описом це "Кінець зміни"

pskrm 
Свій


З нами з: 04.03.17
Востаннє: 21.05.19
Повідомлень: 91

2018-11-17 17:03  
Реліз оновлено!

Додано 5 серію!

pvm 
Поважний учасник


З нами з: 05.03.10
Востаннє: 29.12.18
Повідомлень: 215

2018-12-07 23:57  
Хтось щось знає стосовно озвучки?
casper101 
VIP


З нами з: 03.12.09
Востаннє: 21.05.19
Повідомлень: 404

2019-02-11 19:02  
де нові серії???
Ваш часовий пояс: GMT + 2 Години

Нова тема   Відповісти