Розмах національного прапора (Братерство війни, 38 паралель, Tae Guk Gi: The Brotherhood of War) / Taegukgi hwinalrimyeo (2004) 720p Ukr/Kor | Sub Ukr/Eng

Нові коментарі

Нова тема   Відповісти
Автор Повідомлення
Anonymous 







2018-09-07 20:54  
Розмах національного прапора / Taegukgi hwinalrimyeo (2004) 720p Ukr/Kor | Sub Ukr/Eng

Розмах національного прапора (Братерство війни, 38 паралель, Tae Guk Gi: The Brotherhood of War) / Taegukgi hwinalrimyeo (2004) 720p Ukr/Kor | Sub Ukr/Eng
Постер з альтернативною назвою:



Жанр: бойовик, драма, історичний, військовий
Країна: Південна Корея



Кінокомпанія: Showbox Entertainment
Режисер: Канг Дже-гу / Je-kyu Kang
Актори: Чан Дунґон / Dong-Gun Jang, Вон Бін / Won Bin, Лі Инджу / Eun-ju Lee, Чой Мінсік / Min-sik Choi та інші

Сюжет:
У фільмі розповідається про події Корейської війни 1950–1953 років. Основна увага приділяється трагедії корейської родини: два брати в силу обставин опинилися по різні боки барикад. Творцям фільму вдалося надзвичайно гостро показати жахливість братовбивчих воєн, несправедливість і жорстокість та, одночасно, і нагадати, що самопожертва і любов до ближнього притаманні людині навіть у найжорстокіший час.


Рейтинг MPAA: R - особам до 17 років обов'язкова присутність батьків або дорослого опікуна
Вікова категорія: 16+

Тривалість: 02:27:54 [Режисерська версія]
Якість: 720p
Відео:
кодек:
розмір кадру: 1280 х 550
бітрейт: 6127 кб/с

Аудіо # 1:
мова: українська
переклад: двоголосий закадровий | Дядько Грей та Artymko
кодек: 5.1
бітрейт: 448 кб/с
робота зі звуком: Дядько Грей, Electroz (5.1)

Аудіо # 2:
мова: корейська
переклад: оригінал
кодек: 5.1
бітрейт: 640 кб/с

Субтитри # 1:
мова: українська
тип: програмні (м'які)
формат: *.srt
переклад: Areyssword

Субтитри # 2:
мова: англійська
тип: програмні (м'які)
формат: *.srt

Збережено оригінальні розділи, як на Blu-ray
Info
Код:
Complete name               : Taegukgi hwinalrimyeo (2004) [Ukr,Kor sub.Ukr,Eng] 720р [Hurtom].
Format                      :
Format version              : Version 4
File size                   : 7.46 GiB
Duration                    : 2 h 27 min
Overall bit rate            : 7 216 kb/s
Movie name                  : Розмах національного прапора / 38 паралель / Братерство війни / Taegukgi hwinalrimyeo (2004) [Ukr,Kor sub.Ukr,Eng] 720р [Hurtom]
Released date               : 2015
Encoded date                : UTC 2018-09-07 18:58:16
Writing application         : v26.0.0 ('In The Game') 64-bit
Writing library             : libebml v1.3.6 + v1.4.9
Cover                       : Yes
Comment                     : https://www.imdb.com/title/tt0386064/
Attachments                 : cover.jpg
DIRECTOR                    : Канг Дже-гу / Je-kyu Kang
GENRE                       : бойовик, драма, історичний, військовий
SYNOPSIS                    : У фільмі розповідається про події Корейської війни 1950–1953 років. Основна увага приділяється трагедії корейської родини: два брати в силу обставин опинилися по різні боки барикад. Творцям фільму вдалося надзвичайно гостро показати жахливість братовбивчих воєн, несправедливість і жорстокість та, одночасно, і нагадати, що самопожертва і любов до ближнього притаманні людині навіть у найжорстокіший час.
Url                         : https://toloka.to/t94924

Video
ID                          : 1
Format                      : AVC
Format/Info                 : Advanced Video Codec
Format profile              : [email protected]
Format settings             : CABAC / 5 Ref Frames
Format settings, CABAC      : Yes
Format settings, ReFrames   : 5 frames
Codec ID                    : V_MPEG4/ISO/AVC
Duration                    : 2 h 27 min
Bit rate                    : 6 127 kb/s
Width                       : 1 280 pixels
Height                      : 550 pixels
Display aspect ratio        : 2.35:1
Frame rate mode             : Constant
Frame rate                  : 23.976 FPS
Color space                 : YUV
Chroma subsampling          : 4:2:0
Bit depth                   : 8 bits
Scan type                   : Progressive
Bits/(Pixel*Frame)          : 0.363
Stream size                 : 6.33 GiB (85%)
Title                       : Розмах національного прапора / 38 паралель / Братерство війни / Taegukgi hwinalrimyeo (2004) 720р [HDClub]
Language                    : English
Default                     : Yes
Forced                      : No

Audio #1
ID                          : 2
Format                      : AC-3
Format/Info                 : Audio Coding 3
Commercial name             : Dolby Digital
Codec ID                    : A_AC3
Duration                    : 2 h 27 min
Bit rate mode               : Constant
Bit rate                    : 448 kb/s
Channel(s)                  : 6 channels
Channel layout              : L R C LFE Ls Rs
Sampling rate               : 48.0 kHz
Frame rate                  : 31.250 FPS (1536 SPF)
Bit depth                   : 16 bits
Compression mode            : Lossy
Stream size                 : 474 MiB (6%)
Title                       : DVO [Дядько Грей & Artymko] 5.1 448 Kbps
Language                    : Ukrainian
Service kind                : Complete Main
Default                     : Yes
Forced                      : Yes

Audio #2
ID                          : 3
Format                      : AC-3
Format/Info                 : Audio Coding 3
Commercial name             : Dolby Digital
Codec ID                    : A_AC3
Duration                    : 2 h 27 min
Bit rate mode               : Constant
Bit rate                    : 640 kb/s
Channel(s)                  : 6 channels
Channel layout              : L R C LFE Ls Rs
Sampling rate               : 48.0 kHz
Frame rate                  : 31.250 FPS (1536 SPF)
Bit depth                   : 16 bits
Compression mode            : Lossy
Stream size                 : 676 MiB (9%)
Title                       : Original, 5.1 640 Kbps
Language                    : Korean
Service kind                : Complete Main
Default                     : No
Forced                      : No

Text #1
ID                          : 4
Format                      : UTF-8
Codec ID                    : S_TEXT/UTF8
Codec ID/Info               : UTF-8 Plain Text
Duration                    : 2 h 23 min
Bit rate                    : 62 b/s
Count of elements           : 1532
Stream size                 : 66.1 KiB (0%)
Title                       : Ukr full [Areyssword]
Language                    : Ukrainian
Default                     : No
Forced                      : No

Text #2
ID                          : 5
Format                      : UTF-8
Codec ID                    : S_TEXT/UTF8
Codec ID/Info               : UTF-8 Plain Text
Duration                    : 2 h 23 min
Bit rate                    : 37 b/s
Count of elements           : 1269
Stream size                 : 39.5 KiB (0%)
Title                       : Eng full
Language                    : English
Default                     : No
Forced                      : No

Menu
00:00:00.000                : en:Chapter 01
00:06:23.782                : en:Chapter 02
00:11:17.409                : en:Chapter 03
00:14:27.557                : en:Chapter 04
00:18:03.523                : en:Chapter 05
00:25:49.363                : en:Chapter 06
00:31:51.183                : en:Chapter 07
00:40:04.092                : en:Chapter 08
00:45:43.473                : en:Chapter 09
00:54:54.565                : en:Chapter 10
00:58:20.896                : en:Chapter 11
01:02:57.673                : en:Chapter 12
01:08:39.639                : en:Chapter 13
01:15:12.991                : en:Chapter 14
01:19:31.040                : en:Chapter 15
01:22:55.786                : en:Chapter 16
01:28:51.892                : en:Chapter 17
01:38:19.793                : en:Chapter 18
01:41:55.717                : en:Chapter 19
01:55:53.220                : en:Chapter 20
02:01:55.040                : en:Chapter 21
02:08:52.373                : en:Chapter 22
02:20:47.755                : en:Chapter 23
02:24:23.971                : en:Chapter 24


Джерело: & &


Авторський реліз (завантажувати можна без реєстрації)
 Трекер:    Зареєстрований   

Завантажити / скачати фільм українською



відео для новачків



 Зареєстрований:   2018-09-07 21:36
 Розмір:   7.46 GB 
 Оцінка фільму:   9.7/10 (Голосів: 9)
   
Quit_ua 
Новенький


З нами з: 13.08.18
Востаннє: 14.12.18
Повідомлень: 23

2018-09-08 21:35  
крутезний фільм, знятий чудово. Ось таке жахіття війни.
Ваш часовий пояс: GMT + 2 Години

Нова тема   Відповісти