Повний облом / Big Nothing (2006) AVC Ukr/Eng | Sub Eng

Нові коментарі

Нова тема   Відповісти
Автор Повідомлення
staf777 
Відео Гуртом - підтримка та поширення
Відео Гуртом - підтримка та поширення


З нами з: 16.11.16
Востаннє: 19.09.19
Повідомлень: 2877

2018-09-07 21:08  
Повний облом / Big Nothing (2006) AVC Ukr/Eng | Sub Eng

Повний облом / Big Nothing (2006) AVC Ukr/Eng | Sub Eng


Жанр: трилер, комедія, кримінальний
Країна: США, Канада



Кінокомпанія: British Pathe
Режисер: Жан-Баптист Андреа
Актори: Саймон Пегг, Девід Швіммер, Еліс Ів, Джон Політо, Наташа МакЕлхоун, Мімі Роджерс, Біллі Ешер, Джуліан Гловер, Олівія Петерсон, Сара Едмондсон

Сюжет:
Що може бути гірше для Чарлі, ніж вилетіти з тріском з роботи в перший робочий день? Виявляється знайомство з відчайдушною молодою людиною, яка пропонує йому швидко заробити легкі гроші. Всього лише і треба налякати нечистого на руку священика, який був помічений серед відвідувачів порносайту.
Довго думати не доводитися, вдома дружина і трирічна дочка. Тим більше афера допоможе сім'ї нарешті вибратися з убогості. Чарлі не зауважує, що він не схожий на кримінального авторитета, і з ним може всяке трапитися божевільної кошмарної ночі в місті, де кожен виток долі все більш непередбачуваний.


Тривалість: 01:25:33
Якість: AVC
Відео:
кодек:
розмір кадру: 1024x432
бітрейт: 1987 кб/с

Аудіо # 1:
мова: українська
переклад: багатоголосий закадровий
кодек: 2.0
бітрейт: 192 кб/с

Аудіо # 2:
мова: англійська
переклад: оригінал
кодек: 5.1
бітрейт: 448 кб/с

Субтитри:
мова: англійська
тип: програмні (м'які)
формат: *.srt
Info
General
Unique ID : 132333214370535268352864710433367886577 (0x638E733477627CE6B4E5227046778AF1)
Complete name : H:\» Українське озвучення » Фільми\Комедія\Big Nothing (2006) AVC [UKR_ENG] [Hurtom] .
Format :
Format version : Version 4 / Version 2
File size : 1.57 GiB
Duration : 1 h 25 min
Overall bit rate : 2 630 kb/s
Movie name : Big Nothing (2006) AVC [UKR_ENG] [Hurtom]
Encoded date : UTC 2018-09-08 16:50:04
Writing application : v24.0.0 ('Beyond The Pale') 64-bit
Writing library : libebml v1.3.6 + v1.4.9
Cover : Yes
Attachments : cover.png

Video
ID : 1
Format : AVC
Format/Info : Advanced Video Codec
Format profile : [email protected]
Format settings : CABAC / 3 Ref Frames
Format settings, CABAC : Yes
Format settings, ReFrames : 3 frames
Codec ID : V_MPEG4/ISO/AVC
Duration : 1 h 25 min
Bit rate : 1 987 kb/s
Width : 1 024 pixels
Height : 432 pixels
Display aspect ratio : 2.40:1
Frame rate mode : Constant
Frame rate : 23.976 (24000/1001) FPS
Color space : YUV
Chroma subsampling : 4:2:0
Bit depth : 8 bits
Scan type : Progressive
Bits/(Pixel*Frame) : 0.187
Stream size : 1.19 GiB (76%)
Writing library : core 65 r999kMod cc51047
Encoding settings : cabac=1 / ref=1 / deblock=1:0:0 / analyse=0x1:0x131 / me=hex / subme=7 / psy_rd=1.0:0.0 / mixed_ref=0 / me_range=16 / chroma_me=1 / trellis=0 / 8x8dct=0 / cqm=0 / deadzone=21,11 / chroma_qp_offset=-2 / threads=2 / thread_queue=2 / nr=0 / decimate=1 / mbaff=0 / bframes=3 / b_pyramid=1 / b_adapt=1 / b_bias=0 / direct=3 / wpredb=0 / keyint=250 / keyint_min=25 / scenecut=40(pre) / rc=2pass / bitrate=1987 / ratetol=1.0 / qcomp=0.60 / qpmin=10 / qpmax=51 / qpstep=4 / cplxblur=20.0 / qblur=0.5 / ip_ratio=1.40 / pb_ratio=1.30 / aq=1:1.00
Default : Yes
Forced : No

Audio #1
ID : 2
Format : AC-3
Format/Info : Audio Coding 3
Codec ID : A_AC3
Duration : 1 h 25 min
Bit rate mode : Constant
Bit rate : 192 kb/s
Channel(s) : 2 channels
Channel positions : Front: L R
Sampling rate : 48.0 kHz
Frame rate : 31.250 FPS (1536 SPF)
Bit depth : 16 bits
Compression mode : Lossy
Stream size : 117 MiB (7%)
Title : [UA-MVO]
Language : Ukrainian
Service kind : Complete Main
Default : Yes
Forced : Yes

Audio #2
ID : 3
Format : AC-3
Format/Info : Audio Coding 3
Codec ID : A_AC3
Duration : 1 h 25 min
Bit rate mode : Constant
Bit rate : 448 kb/s
Channel(s) : 6 channels
Channel positions : Front: L C R, Side: L R, LFE
Sampling rate : 48.0 kHz
Frame rate : 31.250 FPS (1536 SPF)
Bit depth : 16 bits
Compression mode : Lossy
Stream size : 274 MiB (17%)
Title : Original
Language : English
Service kind : Complete Main
Default : No
Forced : No

Text
ID : 4
Format : UTF-8
Codec ID : S_TEXT/UTF8
Codec ID/Info : UTF-8 Plain Text
Duration : 1 h 24 min
Bit rate : 59 b/s
Count of elements : 910
Stream size : 36.7 KiB (0%)
Language : English
Default : No
Forced : No

Menu
00:00:00.000 : en:01
00:06:56.541 : en:02
00:13:45.825 : en:03
00:21:54.438 : en:04
00:29:08.372 : en:05
00:35:06.730 : en:06
00:41:36.994 : en:07
00:48:52.263 : en:08
00:56:55.704 : en:09
01:03:23.425 : en:10
01:12:07.323 : en:11
01:18:46.722 : en:12
Скріншоти




За українську доріжку подяка п.: РОМЕО, AngryBirdsUA
Джерело: &


 Трекер:    Зареєстрований   

Завантажити / скачати фільм українською



відео для новачків



 Зареєстрований:   2018-09-08 20:07
 Розмір:   1.57 GB 
 Оцінка фільму:   8.9/10 (Голосів: 18)
   
Інші релізи
   Повний облом / Big Nothing (2006) Remux 1080p Ukr/Eng | Sub Eng/Dut IronBee  2 / 0   17.97 GB   2018-09-16 12:47 
   Повний облом / Big Nothing (2006) 720p Ukr/Eng | Sub Eng staf777  3 / 0   3.29 GB   2018-09-07 21:28 
   Повний облом / Big Nothing (2006) 1080p Ukr/Eng | Sub Eng drop_plz  2 / 0   7.83 GB   2018-09-07 13:37 
   Повний облом / Big Nothing (2006) Ukr/Eng AngryBirdsUA  6 / 0   1.57 GB   2013-12-23 19:00 
lapelle 
Новенький


З нами з: 07.01.11
Востаннє: 19.09.19
Повідомлень: 6

2018-09-07 22:56  
Класна чорна комедія.
bot 
робот


З нами з: 30.09.07
Востаннє: 26.05.05
Повідомлень: 22077

2018-09-08 20:07  
Тему перенесено з Анонси релізів до форуму Фільми


staf777

hatak 
Свій


З нами з: 30.04.15
Востаннє: 19.09.19
Повідомлень: 106

2018-09-09 01:04  
Цікавий фільм. Певною мірою особливий. Хоча, все як і має бути в жанрі “кримінальна комедія”: гумор чорний, персонажі великого співчуття не викликають, на кожному кроці такий фарс, що аж до абсурду — переглядати легко і часом весело. Звичайно, світогляд розширити до небачених раніше горизонтів не вдасться — але під відповідний настрій згодиться.
StepKryha 
Свій


З нами з: 21.06.17
Востаннє: 19.09.19
Повідомлень: 134

2019-04-03 18:47  
Незвичний фільм.
Актори, сюжет, атмосфера, діалоги - усе дуже добре. І слід додати, що цей фільм часто дивує. Happy
8 / 10. Рекомендую.

volodymyr_sav 
VIP


З нами з: 07.10.13
Востаннє: 19.09.19
Повідомлень: 1604

2019-06-06 22:22  
Об'єднаю попередні коментарі : шедевральне кіно, що ну дуже часто дивує і весь час в приємному значенні цього слова. Крутезна гра акторів, особливо сподобалась білявка та старий і жирний ФБРівець. Фільм в буквальному значенні тримає аж до останнього кадру. Так виходить, що Пег відмінний актор, адже усі фільми з ним, що я переглядав, дуже хороші й сьогодні все ще в моїй колекції та в пам'яті.
8/10 - забираю туди ж і цей. Дуже рекомендую для підняття настрою, але фільм специфічний, бо справді чорно-комедійний, будьте готові до іншого сприйняття жахливих подій

Ваш часовий пояс: GMT + 2 Години

Нова тема   Відповісти