Повний облом / Big Nothing (2006) 720p Ukr/Eng | Sub Eng

Нові коментарі

Нова тема   Відповісти
Автор Повідомлення
staf777 
Попереджень: 1
Попереджень: 1 


З нами з: 16.11.16
Востаннє: 21.10.18
Повідомлень: 1642

2018-09-07 20:57  
Повний облом / Big Nothing (2006) 720p Ukr/Eng | Sub Eng

Повний облом / Big Nothing (2006) 720p Ukr/Eng | Sub Eng

Жанр: трилер, комедія, кримінальний
Країна: США, Канада



Кінокомпанія: British Pathe
Режисер: Жан-Баптист Андреа
Актори: Саймон Пегг, Девід Швіммер, Еліс Ів, Джон Політо, Наташа МакЕлхоун, Мімі Роджерс, Біллі Ешер, Джуліан Гловер, Олівія Петерсон, Сара Едмондсон

Сюжет:
Що може бути гірше для Чарлі, ніж вилетіти з тріском з роботи в перший робочий день? Виявляється знайомство з відчайдушною молодою людиною, яка пропонує йому швидко заробити легкі гроші. Всього лише і треба налякати нечистого на руку священика, який був помічений серед відвідувачів порносайту.
Довго думати не доводитися, вдома дружина і трирічна дочка. Тим більше афера допоможе сім'ї нарешті вибратися з убогості. Чарлі не зауважує, що він не схожий на кримінального авторитета, і з ним може всяке трапитися божевільної кошмарної ночі в місті, де кожен виток долі все більш непередбачуваний.


Тривалість: 01:25:33
Якість: 720p
Відео:
кодек:
розмір кадру: 1280x544
бітрейт: 4865 кб/с

Аудіо # 1:
мова: українська
переклад: багатоголосий закадровий
кодек: 2.0
бітрейт: 192 кб/с

Аудіо # 2:
мова: англійська
переклад: оригінал
кодек: 5.1
бітрейт: 448 кб/с

Субтитри:
мова: англійська
тип: програмні (м'які)
формат: *.srt
Info
General
Unique ID : 177032431531192081109651319176847689812 (0x852F34C30F0B658FFD6C52B0999C0854)
Complete name : S:\Big Nothing (2006) 720p [UKR_ENG] [Hurtom] .
Format :
Format version : Version 4 / Version 2
File size : 3.29 GiB
Duration : 1 h 25 min
Overall bit rate : 5 508 kb/s
Movie name : Big Nothing (2006) 720p [UKR_ENG] [Hurtom]
Encoded date : UTC 2018-09-07 18:04:00
Writing application : v24.0.0 ('Beyond The Pale') 64-bit
Writing library : libebml v1.3.6 + v1.4.9
Cover : Yes
Attachments : cover.png

Video
ID : 1
Format : AVC
Format/Info : Advanced Video Codec
Format profile : [email protected]
Format settings : CABAC / 9 Ref Frames
Format settings, CABAC : Yes
Format settings, ReFrames : 9 frames
Codec ID : V_MPEG4/ISO/AVC
Duration : 1 h 25 min
Bit rate : 4 865 kb/s
Width : 1 280 pixels
Height : 544 pixels
Display aspect ratio : 2.35:1
Frame rate mode : Constant
Frame rate : 23.976 (24000/1001) FPS
Color space : YUV
Chroma subsampling : 4:2:0
Bit depth : 8 bits
Scan type : Progressive
Bits/(Pixel*Frame) : 0.291
Stream size : 2.91 GiB (88%)
Title : -- STarankov
Writing library : core 142 r2431 ac76440
Encoding settings : cabac=1 / ref=9 / deblock=1:-1:-1 / analyse=0x3:0x113 / me=umh / subme=10 / psy=1 / psy_rd=1.00:0.15 / mixed_ref=1 / me_range=32 / chroma_me=1 / trellis=2 / 8x8dct=1 / cqm=0 / deadzone=21,11 / fast_pskip=1 / chroma_qp_offset=-3 / threads=6 / lookahead_threads=1 / sliced_threads=0 / nr=0 / decimate=1 / interlaced=0 / bluray_compat=0 / constrained_intra=0 / bframes=8 / b_pyramid=2 / b_adapt=2 / b_bias=0 / direct=3 / weightb=1 / open_gop=0 / weightp=2 / keyint=230 / keyint_min=23 / scenecut=40 / intra_refresh=0 / rc_lookahead=40 / rc=crf / mbtree=0 / crf=18.9 / qcomp=0.60 / qpmin=0 / qpmax=69 / qpstep=4 / vbv_maxrate=40000 / vbv_bufsize=50000 / crf_max=0.0 / nal_hrd=none / filler=0 / ip_ratio=1.40 / pb_ratio=1.30 / aq=1:1.00
Language : English
Default : Yes
Forced : No

Audio #1
ID : 2
Format : AC-3
Format/Info : Audio Coding 3
Codec ID : A_AC3
Duration : 1 h 25 min
Bit rate mode : Constant
Bit rate : 192 kb/s
Channel(s) : 2 channels
Channel positions : Front: L R
Sampling rate : 48.0 kHz
Frame rate : 31.250 FPS (1536 SPF)
Bit depth : 16 bits
Compression mode : Lossy
Stream size : 117 MiB (3%)
Title : [UA-MVO]
Language : Ukrainian
Service kind : Complete Main
Default : Yes
Forced : Yes

Audio #2
ID : 3
Format : AC-3
Format/Info : Audio Coding 3
Codec ID : A_AC3
Duration : 1 h 25 min
Bit rate mode : Constant
Bit rate : 448 kb/s
Channel(s) : 6 channels
Channel positions : Front: L C R, Side: L R, LFE
Sampling rate : 48.0 kHz
Frame rate : 31.250 FPS (1536 SPF)
Bit depth : 16 bits
Compression mode : Lossy
Stream size : 274 MiB (8%)
Title : Original
Language : English
Service kind : Complete Main
Default : No
Forced : No

Text
ID : 4
Format : UTF-8
Codec ID : S_TEXT/UTF8
Codec ID/Info : UTF-8 Plain Text
Duration : 1 h 24 min
Bit rate : 59 b/s
Count of elements : 910
Stream size : 36.7 KiB (0%)
Language : English
Default : No
Forced : No
Скріншоти



За українську доріжку подяка п.: РОМЕО, AngryBirdsUA
Джерело: &


 Трекер:    Зареєстрований   

Завантажити / скачати фільм українською



відео для новачків



 Зареєстрований:   2018-09-07 21:28
 Розмір:   3.29 GB 
 Оцінка фільму:   8.2/10 (Голосів: 5)
   
Інші релізи
   Повний облом / Big Nothing (2006) Remux 1080p Ukr/Eng | Sub Eng/Dut IronBee  2 / 0   17.97 GB   2018-09-16 12:47 
   Повний облом / Big Nothing (2006) AVC Ukr/Eng | Sub Eng staf777  10 / 0   1.57 GB   2018-09-08 20:07 
   Повний облом / Big Nothing (2006) 1080p Ukr/Eng | Sub Eng drop_plz  7 / 0   7.83 GB   2018-09-07 13:37 
   Повний облом / Big Nothing (2006) Ukr/Eng AngryBirdsUA  11 / 0   1.57 GB   2013-12-23 19:00 
Ваш часовий пояс: GMT + 2 Години

Нова тема   Відповісти