Анабель / Annabelle (2014) AVC Ukr/Eng | Sub Ukr/Eng

Нові коментарі

Нова тема   Відповісти
Останній раз роздавалося kinaxem (2019-10-22)
Автор Повідомлення
staf777 
Відео Гуртом - підтримка та поширення
Відео Гуртом - підтримка та поширення


З нами з: 16.11.16
Востаннє: 22.10.19
Повідомлень: 2993

2018-09-07 16:58  
Анабель / Annabelle (2014) AVC Ukr/Eng | Sub Ukr/Eng

Анабель / Annabelle (2014) AVC Ukr/Eng | Sub Ukr/Eng


Жанр: жахи
Країна: США



Кінокомпанія: New Line Cinema, Evergreen Media Group, RatPac-Dune Entertainment
Режисер: Джон Р. Леонетті / John R. Leonetti
Актори: Анабелль Волліс / Annabelle Wallis, Ворд Гортон / Ward Horton, Елфрі Вудард / Alfre Woodard, Тоні Амендола / Tony Amendola, Ерік Ладін / Eric Ladin, Керрі О`Меллі / Kerry O'Malley, Брайан Гоу / Brian Howe та інші

Сюжет:
Джон Форм знайшов чудовий подарунок для своєї вагітної дружини Міа - прекрасну, дуже рідкісну вінтажну ляльку в білій шлюбній сукні. Але радість Міа від подарунка була недовгою. Однієї моторошної ночі їх будинок піддається нападу членів сатанинського культу, що намагаються жорстоко розправитися з сім'єю Формів. Але кровопролиттям і шоком все не обмежується. Сатаністи викликають до життя сутність настільки злобну, що ніщо з сотвореного ними раніше не здатне навіть зрівнятися з несучим погибель провідником у світ проклятих, яким стає... Анабель.


Тривалість: 01:38:48
Якість: AVC
Відео:
кодек:
розмір кадру: 1024х424
бітрейт: 2875 кб/с

Аудіо # 1:
мова: українська
переклад: професійний дубльований
кодек: 5.1
бітрейт: 448 кб/с

Аудіо # 2:
мова: англійська
переклад: оригінал
кодек: 5.1
бітрейт: 448 кб/с

Субтитри # 1-2:
мова: українська (Forced, Full)
тип: програмні (м'які)
формат: *.srt

Субтитри # 3-4:
мова: англійська (Full, SDH)
тип: програмні (м'які)
формат: *.srt
Info
General
Unique ID : 246705843015854701087022635897507328490 (0xB999D12A5119C6ADBC387FAE8334B1EA)
Complete name : S:\Annabelle (2014) AVC [UKR_ENG] [Hurtom].
Format :
Format version : Version 4 / Version 2
File size : 2.60 GiB
Duration : 1 h 38 min
Overall bit rate : 3 772 kb/s
Movie name : Annabelle (2014) AVC [UKR_ENG] [Hurtom]
Encoded date : UTC 2018-09-07 07:42:44
Writing application : v24.0.0 ('Beyond The Pale') 64-bit
Writing library : libebml v1.3.6 + v1.4.9
Cover : Yes
Attachments : cover.jpg

Video
ID : 1
Format : AVC
Format/Info : Advanced Video Codec
Format profile : [email protected]
Format settings : CABAC / 8 Ref Frames
Format settings, CABAC : Yes
Format settings, ReFrames : 8 frames
Codec ID : V_MPEG4/ISO/AVC
Duration : 1 h 38 min
Bit rate : 2 875 kb/s
Width : 1 024 pixels
Height : 424 pixels
Display aspect ratio : 2.40:1
Frame rate mode : Constant
Frame rate : 23.976 FPS
Color space : YUV
Chroma subsampling : 4:2:0
Bit depth : 8 bits
Scan type : Progressive
Bits/(Pixel*Frame) : 0.276
Stream size : 1.98 GiB (76%)
Writing library : core 125 r2200 999b753
Encoding settings : cabac=1 / ref=8 / deblock=1:-3:-3 / analyse=0x3:0x113 / me=umh / subme=9 / psy=1 / psy_rd=1.00:0.00 / mixed_ref=1 / me_range=32 / chroma_me=1 / trellis=2 / 8x8dct=1 / cqm=0 / deadzone=21,11 / fast_pskip=0 / chroma_qp_offset=-2 / threads=6 / lookahead_threads=1 / sliced_threads=0 / nr=0 / decimate=0 / interlaced=0 / bluray_compat=0 / constrained_intra=0 / bframes=8 / b_pyramid=2 / b_adapt=2 / b_bias=0 / direct=3 / weightb=1 / open_gop=0 / weightp=2 / keyint=240 / keyint_min=23 / scenecut=40 / intra_refresh=0 / rc=2pass / mbtree=0 / bitrate=2875 / ratetol=1.0 / qcomp=0.60 / qpmin=0 / qpmax=69 / qpstep=4 / cplxblur=20.0 / qblur=0.5 / ip_ratio=1.40 / pb_ratio=1.30 / aq=1:1.10
Language : English
Default : Yes
Forced : No

Audio #1
ID : 2
Format : AC-3
Format/Info : Audio Coding 3
Codec ID : A_AC3
Duration : 1 h 38 min
Bit rate mode : Constant
Bit rate : 448 kb/s
Channel(s) : 6 channels
Channel positions : Front: L C R, Side: L R, LFE
Sampling rate : 48.0 kHz
Frame rate : 31.250 FPS (1536 SPF)
Bit depth : 16 bits
Compression mode : Lossy
Stream size : 317 MiB (12%)
Title : [UA-DUB]
Language : Ukrainian
Service kind : Complete Main
Default : Yes
Forced : Yes

Audio #2
ID : 3
Format : AC-3
Format/Info : Audio Coding 3
Codec ID : A_AC3
Duration : 1 h 38 min
Bit rate mode : Constant
Bit rate : 448 kb/s
Channel(s) : 6 channels
Channel positions : Front: L C R, Side: L R, LFE
Sampling rate : 48.0 kHz
Frame rate : 31.250 FPS (1536 SPF)
Bit depth : 16 bits
Compression mode : Lossy
Stream size : 317 MiB (12%)
Language : English
Service kind : Complete Main
Default : No
Forced : No

Text #1
ID : 4
Format : UTF-8
Codec ID : S_TEXT/UTF8
Codec ID/Info : UTF-8 Plain Text
Duration : 1 h 33 min
Bit rate : 1 b/s
Count of elements : 25
Stream size : 1.04 KiB (0%)
Language : Ukrainian
Default : Yes
Forced : Yes

Text #2
ID : 5
Format : UTF-8
Codec ID : S_TEXT/UTF8
Codec ID/Info : UTF-8 Plain Text
Duration : 1 h 33 min
Bit rate : 62 b/s
Count of elements : 927
Stream size : 42.6 KiB (0%)
Language : Ukrainian
Default : No
Forced : No

Text #3
ID : 6
Format : UTF-8
Codec ID : S_TEXT/UTF8
Codec ID/Info : UTF-8 Plain Text
Duration : 1 h 32 min
Bit rate : 44 b/s
Count of elements : 901
Stream size : 30.0 KiB (0%)
Language : English
Default : No
Forced : No

Text #4
ID : 7
Format : UTF-8
Codec ID : S_TEXT/UTF8
Codec ID/Info : UTF-8 Plain Text
Duration : 1 h 33 min
Bit rate : 49 b/s
Count of elements : 1056
Stream size : 33.7 KiB (0%)
Language : English
Default : No
Forced : No

Menu
00:00:00.000 : en:00:00:00.000
00:11:58.092 : en:00:11:58.092
00:19:55.152 : en:00:19:55.152
00:30:13.603 : en:00:30:13.603
00:39:09.973 : en:00:39:09.973
00:51:15.489 : en:00:51:15.489
00:59:49.169 : en:00:59:49.169
01:10:05.159 : en:01:10:05.159
01:20:25.279 : en:01:20:25.279
01:31:54.008 : en:01:31:54.008
01:34:42.677 : en:01:34:42.677
Скріншоти



Джерело: &
Особиста оцінка: 8 - мені сподобалося



 Трекер:    Зареєстрований   

Завантажити / скачати фільм українською



відео для новачків



 Зареєстрований:   2018-09-07 17:21
 Розмір:   2.6 GB 
 Оцінка фільму:   9.2/10 (Голосів: 14)
   
Інші релізи
   Анабель / Annabelle (2014) patriot2305  6 / 0   1.46 GB   2015-02-03 23:54 
   Анабель / Annabelle (2014) 1080p Ukr/Eng | Sub Ukr/Eng 11FrYkT  1 / 0   9.4 GB   2015-02-03 20:54 
   Анабель / Annabelle (2014) 720p Ukr/Eng | Sub Ukr/Eng 11FrYkT  0 / 0   3.84 GB   2015-02-03 20:45 
Ваш часовий пояс: GMT + 2 Години

Нова тема   Відповісти