10 років потому / 10 Years (2011) 1080p Ukr/Eng | Sub Eng

Нові коментарі

Нова тема   Відповісти
Автор Повідомлення
Anonymous 







2018-09-07 15:55  
10 років потому / 10 Years (2011) 1080p Ukr/Eng | Sub Eng

10 років потому / 10 Years (2011) 1080p Ukr/Eng | Sub Eng


Жанр: комедія, драма, мелодрама
Країна: США



Кінокомпанія: Anchor Bay Films, Boss Media, Temple Hill Entertainment, Iron Horse Entertainment (II), 33andOut Productions, EG Productions
Режисер: Джемі Лінден / Jamie Linden
Актори: Ченнінґ Тейтум / Channing Tatum, Дженна Деван-Татум / Jenna Dewan-Tatum, Джастін Лонґ / Justin Long, Макс Мінґелла / Max Minghella, Оскар Айзек / Oscar Isaac, Кріс Пратт / Chris Pratt, Арі Ґрейнор / Ari Graynor, Деніель Скотт Лумпкін мол. / Daniel Scott Lumpkin Jr., Лілі Лумпкін / Lily Lumpkin, Скотт Портер / Scott Porter, Ейко Ніджо / Eiko Nijo, Майк Міллер / Mike Miller, Браян Джераті / Brian Geraghty, Обрі Плаза / Aubrey Plaza, Келлі Нунан / Kelly Noonan

Сюжет:
10 років потому колишні однокласники збираються, щоб відірватися по повній і поставити на вуха все місто. Море випивки, веселощів і спогадів, але тепер все по-дорослому! Красунчик Джейк прибув на вечірку разом з красунею дівчиною, вони - ідеальна пара, і вони щасливі в коханні. Але цієї ночі на очі Джейку потрапляє його перше кохання, минуле притягує його і стукає в пам'ять з новою силою. Чи зможе він зробити правильний вибір? І чи правда, що у кохання немає терміну давності?


Тривалість: 01:40:43
Якість: 1080p
Відео:
кодек:
розмір кадру: 1920х1080
бітрейт: 8 681 кб/с

Аудіо # 1:
мова: українська
переклад: багатоголосий закадровий | AAA-sound на замовлення компанії Каскад Україна
кодек: 2.0
бітрейт: 192 кб/с

Аудіо # 2:
мова: англійська
переклад: оригінал
кодек: 5.1
бітрейт: 640 кб/с

Субтитри:
мова: англійська
тип: програмні (м'які)
формат: *.srt
Info
General
Unique ID : 214418543631187268831618281159707587982 (0xA14F8266CD1593719E159907FFCBF58E)
Format :
Format version : Version 4 / Version 2
File size : 6.69 GiB
Duration : 1 h 40 min
Overall bit rate : 9 509 kb/s
Encoded date : UTC 2018-09-07 13:43:40
Writing application : v6.1.0 ('Old Devil') built on Mar 4 2013 09:10:42
Writing library : libebml v1.3.0 + v1.4.0

Video
ID : 1
Format : AVC
Format/Info : Advanced Video Codec
Format profile : [email protected]
Format settings : CABAC / 4 Ref Frames
Format settings, CABAC : Yes
Format settings, ReFrames : 4 frames
Codec ID : V_MPEG4/ISO/AVC
Duration : 1 h 40 min
Bit rate : 8 681 kb/s
Width : 1 920 pixels
Height : 1 080 pixels
Display aspect ratio : 16:9
Frame rate mode : Constant
Frame rate : 23.976 (24000/1001) FPS
Color space : YUV
Chroma subsampling : 4:2:0
Bit depth : 8 bits
Scan type : Progressive
Bits/(Pixel*Frame) : 0.175
Stream size : 5.97 GiB (89%)
Writing library : core 129 r2230 1cffe9f
Encoding settings : cabac=1 / ref=4 / deblock=1:0:0 / analyse=0x3:0x113 / me=umh / subme=8 / psy=1 / psy_rd=1.00:0.00 / mixed_ref=1 / me_range=16 / chroma_me=1 / trellis=1 / 8x8dct=1 / cqm=0 / deadzone=21,11 / fast_pskip=1 / chroma_qp_offset=-2 / threads=12 / lookahead_threads=2 / sliced_threads=0 / nr=0 / decimate=1 / interlaced=0 / bluray_compat=0 / constrained_intra=0 / bframes=3 / b_pyramid=2 / b_adapt=1 / b_bias=0 / direct=3 / weightb=1 / open_gop=0 / weightp=2 / keyint=250 / keyint_min=23 / scenecut=40 / intra_refresh=0 / rc_lookahead=40 / rc=2pass / mbtree=1 / bitrate=8681 / ratetol=1.0 / qcomp=0.60 / qpmin=0 / qpmax=69 / qpstep=4 / cplxblur=20.0 / qblur=0.5 / ip_ratio=1.40 / aq=1:1.00
Language : English
Default : Yes
Forced : No

Audio #1
ID : 2
Format : AC-3
Format/Info : Audio Coding 3
Codec ID : A_AC3
Duration : 1 h 40 min
Bit rate mode : Constant
Bit rate : 192 kb/s
Channel(s) : 2 channels
Channel positions : Front: L R
Sampling rate : 48.0 kHz
Frame rate : 31.250 FPS (1536 SPF)
Bit depth : 16 bits
Compression mode : Lossy
Stream size : 138 MiB (2%)
Title : UKR (AAA-sound)
Language : Ukrainian
Service kind : Complete Main
Default : Yes
Forced : Yes

Audio #2
ID : 3
Format : AC-3
Format/Info : Audio Coding 3
Codec ID : A_AC3
Duration : 1 h 40 min
Bit rate mode : Constant
Bit rate : 640 kb/s
Channel(s) : 6 channels
Channel positions : Front: L C R, Side: L R, LFE
Sampling rate : 48.0 kHz
Frame rate : 31.250 FPS (1536 SPF)
Bit depth : 16 bits
Compression mode : Lossy
Stream size : 461 MiB (7%)
Language : English
Service kind : Complete Main
Default : No
Forced : No

Text
ID : 4
Format : UTF-8
Codec ID : S_TEXT/UTF8
Codec ID/Info : UTF-8 Plain Text
Title : ENG
Language : English
Default : Yes
Forced : No

Menu
00:00:00.000 : en:00:00:00.000
00:06:18.712 : en:00:06:18.712
00:13:34.522 : en:00:13:34.522
00:20:40.030 : en:00:20:40.030
00:33:22.792 : en:00:33:22.792
00:44:20.032 : en:00:44:20.032
00:53:14.983 : en:00:53:14.983
00:59:50.045 : en:00:59:50.045
01:07:19.160 : en:01:07:19.160
01:16:28.584 : en:01:16:28.584
01:25:19.740 : en:01:25:19.740
01:36:04.133 : en:01:36:04.133
Скріншоти







За українську доріжку подяка п. karvai0
Особиста подяка пану denixx за надану матеріальну допомогу на підтримку цього і майбутніх релізів.
Джерело:


 Трекер:    Зареєстрований   

Завантажити / скачати фільм українською



відео для новачків



 Зареєстрований:   2018-09-07 15:55
 Розмір:   6.69 GB 
 Оцінка фільму:   9/10 (Голосів: 3)
   
Інші релізи
   10 років потому / 10 Years (2011) karvai0  4 / 0   1.45 GB   2012-12-31 15:22 
0mage0 
VIP


З нами з: 06.10.15
Востаннє: 17.12.18
Повідомлень: 412

2018-12-08 09:28  
Дивитися можна, місцями цікаво Happy
Ваш часовий пояс: GMT + 2 Години

Нова тема   Відповісти