Розмах національного прапора (Братерство війни, 38 паралель) / Taegukgi hwinalrimyeo (2004) Remux 1080p Ukr/Kor | Sub Ukr/Eng

Нові коментарі

Нова тема   Відповісти
Автор Повідомлення
IronBee 
Поважний учасник


З нами з: 08.02.10
Востаннє: 21.10.18
Повідомлень: 208

2018-09-07 16:24  
Розмах національного прапора / Taegukgi hwinalrimyeo (2004) Remux 1080p Ukr/Kor | Sub Ukr/Eng

Розмах національного прапора (Братерство війни, 38 паралель) / Taegukgi hwinalrimyeo (2004) Remux 1080p Ukr/Kor | Sub Ukr/Eng


Жанр: драма, історичний, військовий
Країна: Південна Корея



Кінокомпанія: Showbox Entertainment
Режисер: Канг Дже-гу
Актори: Чан Дон Ґон, Вон Бін, Лі Ін Джу, Чой Мінсік та інші

Сюжет:
У фільмі розповідається про події Корейської війни 1950–1953 років. Основна увага приділяється трагедії корейської родини: два брати в силу обставин опинилися по різні боки барикад. Творцям фільму вдалося надзвичайно гостро показати жахливість братовбивчих воєн, несправедливість і жорстокість та, одночасно, і нагадати, що самопожертва і любов до ближнього притаманні людині навіть у найжорстокіший час.


Тривалість: 02:28:13
Якість: Remux
Відео:
кодек:
розмір кадру: 1920 х 1080
бітрейт: 36 Mб/с

Аудіо # 1:
мова: українська
переклад: двоголосий закадровий | Дядько Грей та Artymko
кодек: 5.1
бітрейт: 448 кб/с
робота зі звуком: Дядько Грей, Electroz (5.1)

Аудіо # 2:
мова: корейська
переклад: оригінал
кодек: -HD HRA 5.1
бітрейт: 2046 кб/с

Субтитри # 1:
мова: українська
тип: програмні (м'які)
формат: *.srt
переклад: Areyssword

Субтитри # 2:
мова: англійська
тип: програмні (м'які)
формат: *.srt
Info
General
Unique ID : 339490833602828867218092810795951994958 (0xFF678E64F66DF9420F8F3F676B12384E)
Complete name : E:\Films\Розмах національного прапора Братерство війни Taegukgi hwinalrimyeo (2004) Remux 1080р UkrKor sub Ukr Eng[Hurtom].
Format :
Format version : Version 4 / Version 2
File size : 31.1 GiB
Duration : 2 h 28 min
Overall bit rate mode : Variable
Overall bit rate : 30.1 Mb/s
Encoded date : UTC 2018-09-04 17:18:28
Writing application : v26.0.0 ('In The Game') 64-bit
Writing library : libebml v1.3.6 + v1.4.9

Video
ID : 1
Format : AVC
Format/Info : Advanced Video Codec
Format profile : [email protected]
Format settings : CABAC / 4 Ref Frames
Format settings, CABAC : Yes
Format settings, ReFrames : 4 frames
Codec ID : V_MPEG4/ISO/AVC
Duration : 2 h 28 min
Bit rate mode : Variable
Bit rate : 27.6 Mb/s
Maximum bit rate : 36.0 Mb/s
Width : 1 920 pixels
Height : 1 080 pixels
Display aspect ratio : 16:9
Frame rate mode : Constant
Frame rate : 23.976 (24000/1001) FPS
Standard : NTSC
Color space : YUV
Chroma subsampling : 4:2:0
Bit depth : 8 bits
Scan type : Progressive
Bits/(Pixel*Frame) : 0.555
Stream size : 28.6 GiB (92%)
Default : Yes
Forced : No
Color range : Limited
Color primaries : BT.709
Transfer characteristics : BT.709
Matrix coefficients : BT.709

Audio #1
ID : 2
Format : AC-3
Format/Info : Audio Coding 3
Commercial name : Dolby Digital
Codec ID : A_AC3
Duration : 2 h 28 min
Bit rate mode : Constant
Bit rate : 448 kb/s
Channel(s) : 6 channels
Channel positions : Front: L C R, Side: L R, LFE
Sampling rate : 48.0 kHz
Frame rate : 31.250 FPS (1536 SPF)
Bit depth : 16 bits
Compression mode : Lossy
Stream size : 475 MiB (1%)
Title : 5.1 448 кб/с двоголосий закадровий | Дядько Грей та Artymko
Language : Ukrainian
Service kind : Complete Main
Default : Yes
Forced : No

Audio #2
ID : 3
Format :
Format/Info : Digital Theater Systems
Format profile : HRA / Core
Codec ID : A_DTS
Duration : 2 h 28 min
Bit rate mode : Constant
Bit rate : 2 046 kb/s / 1 509 kb/s
Channel(s) : 6 channels
Channel positions : Front: L C R, Side: L R, LFE
Sampling rate : 48.0 kHz
Frame rate : 93.750 FPS (512 SPF)
Bit depth : 16 bits
Compression mode : Lossy
Stream size : 2.12 GiB (7%)
Language : Korean
Default : No
Forced : No

Text #1
ID : 4
Format : UTF-8
Codec ID : S_TEXT/UTF8
Codec ID/Info : UTF-8 Plain Text
Duration : 2 h 23 min
Bit rate : 62 b/s
Count of elements : 1533
Stream size : 66.1 KiB (0%)
Language : Ukrainian
Default : Yes
Forced : No

Text #2
ID : 5
Format : UTF-8
Codec ID : S_TEXT/UTF8
Codec ID/Info : UTF-8 Plain Text
Duration : 2 h 23 min
Bit rate : 39 b/s
Count of elements : 1530
Stream size : 41.8 KiB (0%)
Language : English
Default : No
Forced : No
Скріншоти




Джерело: & AniTube.in.ua
Особиста оцінка: 0 - не дивився


Авторський реліз (завантажувати можна без реєстрації)
 Трекер:    Зареєстрований   

Завантажити / скачати фільм українською



відео для новачків



 Зареєстрований:   2018-09-07 16:24
 Розмір:   31.14 GB 
 Оцінка фільму:   9/10 (Голосів: 3)
   
Ваш часовий пояс: GMT + 2 Години

Нова тема   Відповісти