Епідемія / Outbreak (1995) 1080p 3xUkr/Eng | Sub Eng

Нові коментарі

Нова тема   Відповісти
Автор Повідомлення
Anonymous 







2018-09-07 13:58  
Епідемія / Outbreak (1995) 1080p 3xUkr/Eng | Sub Eng

Епідемія / Outbreak (1995) 1080p 3xUkr/Eng | Sub Eng


Жанр: драма, фантастика, трилер
Країна: США



Кінокомпанія: Warner Bros. Pictures, Arnold Kopelson Productions, Punch Productions
Режисер: Вольфґанґ Петерсен
Актори: Дастін Гоффман, Рене Руссо, Морган Фрімен, Кевін Спейсі, Кьюба Ґудінг мол., Доналд Сазерленд, Патрік Демпсі

Сюжет:
З Африки до Америки із зараженою мавпочкою потрапляє смертельний вірус. Фахівці-епідеміологи з НДІ інфекційних захворювань армії США, в числі яких полковник Сем Деніелс, терміново вилітають в епіцентр зараження. Двоє з вищих військових керівників — начальники Сема — приховують від нього, що їм відомий цей вірус, який вони виводили декілька років. І, більш того, навіть розробили сироватку, здатну знешкоджувати вірус.

Для запобігання страшній епідемії потрібна сироватка, яку можна отримати лише з крові первинного носія — тієї самої мавпочки. Справа ускладнюється тим, що місце її знаходження невідоме, а рахунок йде на години.


Тривалість: 02:08:12
Якість: 1080p
Відео:
кодек:
розмір кадру: 1920х1080
бітрейт: 8230 кб/с

Аудіо # 1:
мова: українська
переклад: двоголосий закадровий
кодек: 5.1
бітрейт: 384 кб/с

Аудіо # 2:
мова: українська
переклад: двоголосий закадровий
кодек: 5.1
бітрейт: 384 кб/с

Аудіо # 3:
мова: українська
переклад: багатоголосий закадровий
кодек: 5.1
бітрейт: 384 кб/с
примітка: звук низької якості, з архіву tvline.biz

Аудіо # 4:
мова: англійська
переклад: оригінал
кодек: 5.1
бітрейт: 640 кб/с

Субтитри:
мова: англійська
тип: програмні (м'які)
формат: *.srt
Info
General
Unique ID : 176025795082072008484649936316732129388 (0x846D55C0CFA20CE5931CAF40BB81C06C)
Format :
Format version : Version 4 / Version 2
File size : 8.98 GiB
Duration : 2 h 8 min
Overall bit rate : 10.0 Mb/s
Encoded date : UTC 2018-09-07 10:48:39
Writing application : v6.1.0 ('Old Devil') built on Mar 4 2013 09:10:42
Writing library : libebml v1.3.0 + v1.4.0

Video
ID : 1
Format : AVC
Format/Info : Advanced Video Codec
Format profile : [email protected]
Format settings : CABAC / 4 Ref Frames
Format settings, CABAC : Yes
Format settings, ReFrames : 4 frames
Codec ID : V_MPEG4/ISO/AVC
Duration : 2 h 8 min
Bit rate : 8 230 kb/s
Width : 1 920 pixels
Height : 1 080 pixels
Display aspect ratio : 16:9
Frame rate mode : Constant
Frame rate : 23.976 FPS
Color space : YUV
Chroma subsampling : 4:2:0
Bit depth : 8 bits
Scan type : Progressive
Bits/(Pixel*Frame) : 0.166
Stream size : 7.19 GiB (80%)
Writing library : core 65 r998M 6768543
Encoding settings : cabac=1 / ref=4 / deblock=1:0:0 / analyse=0x3:0x113 / me=umh / subme=7 / psy_rd=1.0:0.0 / mixed_ref=1 / me_range=16 / chroma_me=1 / trellis=1 / 8x8dct=1 / cqm=0 / deadzone=8,5 / chroma_qp_offset=-2 / threads=6 / nr=0 / decimate=1 / mbaff=0 / bframes=3 / b_pyramid=1 / b_adapt=1 / b_bias=0 / direct=1 / wpredb=1 / keyint=250 / keyint_min=25 / scenecut=40(pre) / rc=2pass / bitrate=8230 / ratetol=1.0 / qcomp=0.60 / qpmin=10 / qpmax=51 / qpstep=4 / cplxblur=20.0 / qblur=0.5 / ip_ratio=1.40 / pb_ratio=1.30 / aq=1:1.00
Default : Yes
Forced : No

Audio #1
ID : 2
Format : AC-3
Format/Info : Audio Coding 3
Codec ID : A_AC3
Duration : 2 h 8 min
Bit rate mode : Constant
Bit rate : 384 kb/s
Channel(s) : 6 channels
Channel positions : Front: L C R, Side: L R, LFE
Sampling rate : 48.0 kHz
Frame rate : 31.250 FPS (1536 SPF)
Bit depth : 16 bits
Compression mode : Lossy
Stream size : 352 MiB (4%)
Title : UKR (Новий)
Language : Ukrainian
Service kind : Complete Main
Default : Yes
Forced : Yes

Audio #2
ID : 3
Format : AC-3
Format/Info : Audio Coding 3
Codec ID : A_AC3
Duration : 2 h 8 min
Bit rate mode : Constant
Bit rate : 384 kb/s
Channel(s) : 6 channels
Channel positions : Front: L C R, Side: L R, LFE
Sampling rate : 48.0 kHz
Frame rate : 31.250 FPS (1536 SPF)
Bit depth : 16 bits
Compression mode : Lossy
Stream size : 352 MiB (4%)
Title : UKR (K1)
Language : Ukrainian
Service kind : Complete Main
Default : No
Forced : No

Audio #3
ID : 4
Format : AC-3
Format/Info : Audio Coding 3
Codec ID : A_AC3
Duration : 2 h 8 min
Bit rate mode : Constant
Bit rate : 384 kb/s
Channel(s) : 6 channels
Channel positions : Front: L C R, Side: L R, LFE
Sampling rate : 48.0 kHz
Frame rate : 31.250 FPS (1536 SPF)
Bit depth : 16 bits
Compression mode : Lossy
Stream size : 352 MiB (4%)
Title : UKR (ICTV)
Language : Ukrainian
Service kind : Complete Main
Default : No
Forced : No

Audio #4
ID : 5
Format : AC-3
Format/Info : Audio Coding 3
Codec ID : A_AC3
Duration : 2 h 8 min
Bit rate mode : Constant
Bit rate : 640 kb/s
Channel(s) : 6 channels
Channel positions : Front: L C R, Side: L R, LFE
Sampling rate : 48.0 kHz
Frame rate : 31.250 FPS (1536 SPF)
Bit depth : 16 bits
Compression mode : Lossy
Stream size : 587 MiB (6%)
Language : English
Service kind : Complete Main
Default : No
Forced : No

Text
ID : 6
Format : UTF-8
Codec ID : S_TEXT/UTF8
Codec ID/Info : UTF-8 Plain Text
Language : English
Default : Yes
Forced : No
Скріншоти









За українські доріжки №2 та №3 подяка п.: rooster, SweetN
Доріжка №1 від сайту HDClub
За постер подяка п. Sherlock249
Особиста подяка пану denixx за надану матеріальну допомогу на підтримку цього і майбутніх релізів.
Джерело:


Срібний реліз (на рейтинг впливає 50% завантаженого)
 Трекер:    Зареєстрований   

Завантажити / скачати фільм українською



відео для новачків



 Зареєстрований:   2018-09-07 13:58
 Розмір:   8.98 GB 
 Оцінка фільму:   10/10 (Голосів: 2)
   
Інші релізи
   Епідемія / Outbreak (1995) 3xUkr/Eng | Sub Eng rooster  1 / 0   3.22 GB   2011-01-31 18:43 
   Епідемія / Outbreak (1995) 720p Ukr/Eng | Sub Eng DiGen  0 / 0   4.27 GB   2011-01-31 11:48 
Ваш часовий пояс: GMT + 2 Години

Нова тема   Відповісти