Повний облом / Big Nothing (2006) 1080p Ukr/Eng | Sub Eng

Нові коментарі

Нова тема   Відповісти
Автор Повідомлення
Anonymous 







2018-09-07 13:37  
Повний облом / Big Nothing (2006) 1080p Ukr/Eng | Sub Eng

Повний облом / Big Nothing (2006) 1080p Ukr/Eng | Sub Eng


Жанр: трилер, комедія, кримінальний
Країна: США, Канада



Кінокомпанія: British Pathe
Режисер: Жан-Баптист Андреа
Актори: Саймон Пегг, Девід Швіммер, Еліс Ів, Джон Політо, Наташа МакЕлхоун, Мімі Роджерс, Біллі Ешер, Джуліан Гловер, Олівія Петерсон, Сара Едмондсон

Сюжет:
Що може бути гірше для Чарлі, ніж вилетіти з тріском з роботи в перший робочий день? Виявляється знайомство з відчайдушною молодою людиною, яка пропонує йому швидко заробити легкі гроші. Всього лише і треба налякати нечистого на руку священика, який був помічений серед відвідувачів порносайту.
Довго думати не доводиться, вдома дружина і трирічна дочка. Тим більше афера допоможе сім'ї нарешті вибратися зі злиднів. Чарлі не зауважує, що він не схожий на кримінального авторитета, і з ним може всяке трапитися божевільної кошмарної ночі в місті, де кожен оберт долі стає все більш непередбачуваним.


Тривалість: 01:25:33
Якість: 1080p
Відео:
кодек:
розмір кадру: 1920х816
бітрейт: 11,1 Мб/с

Аудіо # 1:
мова: українська
переклад: багатоголосий закадровий
кодек: 2.0
бітрейт: 192 кб/с

Аудіо # 2:
мова: англійська
переклад: оригінал
кодек: 5.1
бітрейт: 1509 кб/с

Субтитри:
мова: англійська
тип: програмні (м'які)
формат: *.srt
Info
General
Unique ID : 234042415389392653119523901595477026218 (0xB012EDFAA083F746850D20622D4725AA)
Format :
Format version : Version 4 / Version 2
File size : 7.83 GiB
Duration : 1 h 25 min
Overall bit rate : 13.1 Mb/s
Encoded date : UTC 2018-09-07 10:31:55
Writing application : v6.1.0 ('Old Devil') built on Mar 4 2013 09:10:42
Writing library : libebml v1.3.0 + v1.4.0

Video
ID : 1
Format : AVC
Format/Info : Advanced Video Codec
Format profile : [email protected]
Format settings : CABAC / 4 Ref Frames
Format settings, CABAC : Yes
Format settings, ReFrames : 4 frames
Codec ID : V_MPEG4/ISO/AVC
Duration : 1 h 25 min
Bit rate : 11.1 Mb/s
Width : 1 920 pixels
Height : 816 pixels
Display aspect ratio : 2.35:1
Frame rate mode : Constant
Frame rate : 23.976 (24000/1001) FPS
Color space : YUV
Chroma subsampling : 4:2:0
Bit depth : 8 bits
Scan type : Progressive
Bits/(Pixel*Frame) : 0.297
Stream size : 6.66 GiB (85%)
Writing library : core 142 r2431 ac76440
Encoding settings : cabac=1 / ref=4 / deblock=1:-1:-1 / analyse=0x3:0x113 / me=umh / subme=10 / psy=1 / psy_rd=1.00:0.15 / mixed_ref=1 / me_range=32 / chroma_me=1 / trellis=2 / 8x8dct=1 / cqm=0 / deadzone=21,11 / fast_pskip=1 / chroma_qp_offset=-3 / threads=6 / lookahead_threads=1 / sliced_threads=0 / nr=0 / decimate=1 / interlaced=0 / bluray_compat=0 / constrained_intra=0 / bframes=8 / b_pyramid=2 / b_adapt=2 / b_bias=0 / direct=3 / weightb=1 / open_gop=0 / weightp=2 / keyint=230 / keyint_min=23 / scenecut=40 / intra_refresh=0 / rc_lookahead=40 / rc=crf / mbtree=0 / crf=19.5 / qcomp=0.60 / qpmin=0 / qpmax=69 / qpstep=4 / vbv_maxrate=40000 / vbv_bufsize=50000 / crf_max=0.0 / nal_hrd=none / filler=0 / ip_ratio=1.40 / pb_ratio=1.30 / aq=1:1.00
Language : English
Default : Yes
Forced : No
Statistics Tags Issue : v7.5.0 ('Glass Culture') 64bit built on Jan 4 2015 16:48:44 2015-01-25 03:57:32 / v6.1.0 ('Old Devil') built on Mar 4 2013 09:10:42 2018-09-07 10:31:55
FromStats_BitRate : 11399629
FromStats_Duration : 01:25:33.170000000
FromStats_FrameCount : 123073
FromStats_StreamSize : 7314529378

Audio #1
ID : 2
Format : AC-3
Format/Info : Audio Coding 3
Codec ID : A_AC3
Duration : 1 h 25 min
Bit rate mode : Constant
Bit rate : 192 kb/s
Channel(s) : 2 channels
Channel positions : Front: L R
Sampling rate : 48.0 kHz
Frame rate : 31.250 FPS (1536 SPF)
Bit depth : 16 bits
Compression mode : Lossy
Stream size : 117 MiB (1%)
Title : UKR (NLO-TV)
Language : Ukrainian
Service kind : Complete Main
Default : Yes
Forced : Yes

Audio #2
ID : 3
Format :
Format/Info : Digital Theater Systems
Codec ID : A_DTS
Duration : 1 h 25 min
Bit rate mode : Constant
Bit rate : 1 509 kb/s
Channel(s) : 6 channels
Channel positions : Front: L C R, Side: L R, LFE
Sampling rate : 48.0 kHz
Frame rate : 93.750 FPS (512 SPF)
Bit depth : 16 bits
Compression mode : Lossy
Stream size : 923 MiB (12%)
Language : English
Default : No
Forced : No
Statistics Tags Issue : v7.5.0 ('Glass Culture') 64bit built on Jan 4 2015 16:48:44 2015-01-25 03:57:32 / v6.1.0 ('Old Devil') built on Mar 4 2013 09:10:42 2018-09-07 10:31:55
FromStats_BitRate : 1509000
FromStats_Duration : 01:25:33.152000000
FromStats_FrameCount : 481233
FromStats_StreamSize : 968241044

Text
ID : 4
Format : UTF-8
Codec ID : S_TEXT/UTF8
Codec ID/Info : UTF-8 Plain Text
Title : ENG
Language : English
Default : No
Forced : No
Statistics Tags Issue : v7.5.0 ('Glass Culture') 64bit built on Jan 4 2015 16:48:44 2015-01-25 03:57:32 / v6.1.0 ('Old Devil') built on Mar 4 2013 09:10:42 2018-09-07 10:31:55
FromStats_BitRate : 59
FromStats_Duration : 01:24:10.592000000
FromStats_FrameCount : 910
FromStats_StreamSize : 37535
Скріншоти








За українську доріжку подяка п.: РОМЕО, AngryBirdsUA
Особиста подяка пану denixx за надану матеріальну допомогу на підтримку цього і майбутніх релізів.
Джерело:


 Трекер:    Зареєстрований   

Завантажити / скачати фільм українською



відео для новачків



 Зареєстрований:   2018-09-07 13:37
 Розмір:   7.83 GB 
 Оцінка фільму:   9.3/10 (Голосів: 4)
   
Інші релізи
   Повний облом / Big Nothing (2006) Remux 1080p Ukr/Eng | Sub Eng/Dut IronBee  2 / 0   17.97 GB   2018-09-16 12:47 
   Повний облом / Big Nothing (2006) AVC Ukr/Eng | Sub Eng staf777  6 / 0   1.57 GB   2018-09-08 20:07 
   Повний облом / Big Nothing (2006) 720p Ukr/Eng | Sub Eng staf777  2 / 0   3.29 GB   2018-09-07 21:28 
   Повний облом / Big Nothing (2006) Ukr/Eng AngryBirdsUA  8 / 0   1.57 GB   2013-12-23 19:00 
pvm 
Поважний учасник


З нами з: 05.03.10
Востаннє: 17.10.18
Повідомлень: 208

2018-09-23 00:37  
Довго думати не доводитися
Ваш часовий пояс: GMT + 2 Години

Нова тема   Відповісти