Зевс і Роксана / Zeus and Roxanne (1997) 720p Ukr/Eng | Sub Eng

Нові коментарі

Нова тема   Відповісти
Автор Повідомлення
Anonymous 







2018-09-07 11:01  
Зевс і Роксана / Zeus and Roxanne (1997) 720p Ukr/Eng | Sub Eng

Зевс і Роксана / Zeus and Roxanne (1997) 720p Ukr/Eng | Sub Eng


Жанр: мелодрама, комедія, сімейний, пригодницький
Країна: США



Кінокомпанія: Metro-Goldwyn-Mayer (MGM), Rysher Entertainment
Режисер: Джордж Мілер
Актори: Стів Ґутенберґ, Арнольд Вослу, Маджандра Делфіно

Сюжет:
Террі Барнетт пише музику на березі океану, де живе в маленькому містечку з сином і милим смішним песиком, якого звуть Зевс. Зевс - страшний пустун, і його за це не любить сусідка Мері Бет, називаючи блохастим і переносячи свою неприязнь на власників. Вона живе з двома доньками і займається вивченням поведінки дельфінів. Зевс проникає на борт її судна і падає у воду, де багато-багато диких акул! Рятує його від зубастих хижаків розумний і добрий дельфін Роксана. Зевс та Роксана, звичайно ж, стають кращими друзями, а їх дружба, або "міжвидове спілкування", як це називає симпатична вчена, зближує обидві сім'ї.


Тривалість: 01:38:09
Якість: 720p
Відео:
кодек:
розмір кадру: 1280х720
бітрейт: 4104 кб/с

Аудіо # 1:
мова: українська
переклад: двоголосий закадровий
кодек: 2.0
бітрейт: 192 кб/с

Аудіо # 2:
мова: англійська
переклад: оригінал
кодек: E- 2.0
бітрейт: 224 кб/с

Субтитри # 1:
мова: англійська (Full)
тип: програмні (м'які)
формат: *.srt

Субтитри # 2:
мова: англійська (SDH)
тип: програмні (м'які)
формат: *.srt
Info
General
Unique ID : 172047177309970094424164994811082075867 (0x816F14C089106D459BECF0915EB46EDB)
Format :
Format version : Version 4 / Version 2
File size : 3.16 GiB
Duration : 1 h 38 min
Overall bit rate mode : Variable
Overall bit rate : 4 612 kb/s
Encoded date : UTC 2018-09-07 08:52:36
Writing application : v6.1.0 ('Old Devil') built on Mar 4 2013 09:10:42
Writing library : libebml v1.3.0 + v1.4.0

Video
ID : 1
Format : AVC
Format/Info : Advanced Video Codec
Format profile : [email protected]
Format settings : CABAC / 5 Ref Frames
Format settings, CABAC : Yes
Format settings, ReFrames : 5 frames
Codec ID : V_MPEG4/ISO/AVC
Duration : 1 h 38 min
Bit rate mode : Variable
Bit rate : 4 104 kb/s
Maximum bit rate : 4 500 kb/s
Width : 1 280 pixels
Height : 720 pixels
Display aspect ratio : 16:9
Frame rate mode : Constant
Frame rate : 23.976 (24000/1001) FPS
Color space : YUV
Chroma subsampling : 4:2:0
Bit depth : 8 bits
Scan type : Progressive
Bits/(Pixel*Frame) : 0.186
Stream size : 2.81 GiB (89%)
Writing library : core 148 r2623 d5b2374
Encoding settings : cabac=1 / ref=5 / deblock=1:-1:-1 / analyse=0x3:0x133 / me=umh / subme=9 / psy=1 / psy_rd=1.00:0.15 / mixed_ref=1 / me_range=24 / chroma_me=1 / trellis=2 / 8x8dct=1 / cqm=0 / deadzone=21,11 / fast_pskip=1 / chroma_qp_offset=-3 / threads=22 / lookahead_threads=3 / sliced_threads=0 / nr=150 / decimate=1 / interlaced=0 / bluray_compat=0 / constrained_intra=0 / bframes=8 / b_pyramid=2 / b_adapt=2 / b_bias=0 / direct=3 / weightb=1 / open_gop=0 / weightp=2 / keyint=120 / keyint_min=61 / scenecut=0 / intra_refresh=0 / rc_lookahead=120 / rc=crf / mbtree=1 / crf=18.0 / qcomp=0.60 / qpmin=0 / qpmax=69 / qpstep=4 / vbv_maxrate=4500 / vbv_bufsize=17500 / crf_max=0.0 / nal_hrd=vbr / filler=0 / ip_ratio=1.40 / aq=3:1.00
Language : English
Default : Yes
Forced : No
Color range : Limited
Color primaries : BT.709
Transfer characteristics : BT.709
Matrix coefficients : BT.709

Audio #1
ID : 2
Format : AC-3
Format/Info : Audio Coding 3
Codec ID : A_AC3
Duration : 1 h 38 min
Bit rate mode : Constant
Bit rate : 192 kb/s
Channel(s) : 2 channels
Channel positions : Front: L R
Sampling rate : 48.0 kHz
Frame rate : 31.250 FPS (1536 SPF)
Bit depth : 16 bits
Compression mode : Lossy
Stream size : 135 MiB (4%)
Title : UKR (K1)
Language : Ukrainian
Service kind : Complete Main
Default : Yes
Forced : Yes

Audio #2
ID : 3
Format : E-AC-3
Format/Info : Enhanced Audio Coding 3
Codec ID : A_EAC3
Duration : 1 h 38 min
Bit rate mode : Constant
Bit rate : 224 kb/s
Channel(s) : 2 channels
Channel positions : Front: L R
Sampling rate : 48.0 kHz
Frame rate : 187.500 FPS (256 SPF)
Compression mode : Lossy
Stream size : 157 MiB (5%)
Language : English
Service kind : Complete Main
Default : No
Forced : No

Text #1
ID : 4
Format : UTF-8
Codec ID : S_TEXT/UTF8
Codec ID/Info : UTF-8 Plain Text
Language : English
Default : No
Forced : No

Text #2
ID : 5
Format : UTF-8
Codec ID : S_TEXT/UTF8
Codec ID/Info : UTF-8 Plain Text
Title : SDH
Language : English
Default : No
Forced : No
Скріншоти










За українську доріжку подяка п.: РОМЕО, taraskill1
Особиста подяка пану denixx за надану матеріальну допомогу на підтримку цього і майбутніх релізів.
Джерело:


Срібний реліз (на рейтинг впливає 50% завантаженого)
 Трекер:    Зареєстрований   

Завантажити / скачати фільм українською



відео для новачків



 Зареєстрований:   2018-09-07 11:01
 Розмір:   3.16 GB 
 Оцінка фільму:   9.6/10 (Голосів: 7)
   
Інші релізи
   Зевс і Роксана / Zeus and Roxanne (1997) Ukr/Eng taraskill1  3 / 0   1.48 GB   2014-08-18 11:06 
Panther2214 
Поважний учасник


З нами з: 29.09.17
Востаннє: 17.12.18
Повідомлень: 193

2018-12-08 20:53  
А кращий ріп цього фільму є???
igor911 
Відео Гуртом
Відео Гуртом


З нами з: 18.01.08
Востаннє: 18.12.18
Повідомлень: 11622

2018-12-08 20:58  
Panther2214 написано:
А кращий ріп цього фільму є???

Є ще 'и з Амазону (якість я не порівнював), на блуреї фільм не виходив.

Panther2214 
Поважний учасник


З нами з: 29.09.17
Востаннє: 17.12.18
Повідомлень: 193

2018-12-08 21:31  
igor911

Маю на увазі 720, цього цілком вистачає... І ще одне, хто може зробити у форматі 720 Код да Вінчі???

igor911 
Відео Гуртом
Відео Гуртом


З нами з: 18.01.08
Востаннє: 18.12.18
Повідомлень: 11622

2018-12-08 23:55  
Panther2214 написано:
Маю на увазі 720

ти питаєш за якість - я кажу, що є два джерела HD відеоряду ( в т.ч. 720) - айтюнс (цей реліз) та амазон. Можеш глянути в неті, порівняти і зробити для себе висновок.

Panther2214 
Поважний учасник


З нами з: 29.09.17
Востаннє: 17.12.18
Повідомлень: 193

2018-12-09 15:31  
igor911

Думаєш я розуміюсь, мене влаштовує 720, бо переважно такі формати завантажую до колекції та передивляюсь, на рахунок 1080 нічим майже не відрізняються від 720 - якість та сама, те що більше місця займає... Читав правила, було написано що існує форс-мажор, тобто можна скачувати фільми без перешкод на новорічні свята, а якщо будуть відсутні сідери на роздачі, я зможу скачати фільми у цей період часу, які не зміг завантажити???

igor911 
Відео Гуртом
Відео Гуртом


З нами з: 18.01.08
Востаннє: 18.12.18
Повідомлень: 11622

2018-12-09 15:38  
igor911 2018-12-08 20:58 написано:
на блуреї фільм не виходив

Panther2214 написано:
мене влаштовує 720

...тоді зачекай до зелених віників

Panther2214 
Поважний учасник


З нами з: 29.09.17
Востаннє: 17.12.18
Повідомлень: 193

2018-12-09 15:40  
igor911

До Пасхи чекати чи що???

igor911 
Відео Гуртом
Відео Гуртом


З нами з: 18.01.08
Востаннє: 18.12.18
Повідомлень: 11622

2018-12-09 15:42  
Panther2214 написано:
До Пасхи чекати чи що?

до другого пришестя

Panther2214 
Поважний учасник


З нами з: 29.09.17
Востаннє: 17.12.18
Повідомлень: 193

2018-12-09 15:46  
igor911

Дуже дотепно, ще би написав на кінського Петра чорт забирай...

Panther2214 
Поважний учасник


З нами з: 29.09.17
Востаннє: 17.12.18
Повідомлень: 193

2018-12-11 17:39  
igor911

Зможеш викласти такі фільми Код Да Вінчі (2006) театральна версія та Діамантовий поліцейський (1999) у форматі 720???

igor911 
Відео Гуртом
Відео Гуртом


З нами з: 18.01.08
Востаннє: 18.12.18
Повідомлень: 11622

2018-12-11 17:44  
Panther2214, на жаль, зараз немає достатньо часу для релізів. А в чому проблема взяти звук з вже існуючих релізів і прикрутити до потрібного тобі відеоряду?
І ще - прохання писати заявки в темі замовлень, а не флудити у всіх темах.

Panther2214 
Поважний учасник


З нами з: 29.09.17
Востаннє: 17.12.18
Повідомлень: 193

2018-12-11 17:52  
igor911

Писав там, ніхто не відповідає... Проблема є, якби я ж вмів цим займатись - не флудив, можеш повидаляти флуд, це востаннє... Ніколи до ладу неможливо зібрати колекцію, печаль...

igor911 
Відео Гуртом
Відео Гуртом


З нами з: 18.01.08
Востаннє: 18.12.18
Повідомлень: 11622

2018-12-11 17:52  
Panther2214, напиши в приват staf777
staf777 
Попереджень: 1
Попереджень: 1 


З нами з: 16.11.16
Востаннє: 18.12.18
Повідомлень: 1937

2018-12-11 18:28  
Panther2214 ні чого не обіцяю але завтра подивимось
staf777 
Попереджень: 1
Попереджень: 1 


З нами з: 16.11.16
Востаннє: 18.12.18
Повідомлень: 1937

2018-12-11 22:29  
Panther2214 написано:
Зможеш викласти такі фільми Код Да Вінчі (2006) театральна версія

а чим розширена не вгодила https://toloka.to/t30345

Ваш часовий пояс: GMT + 2 Години

Нова тема   Відповісти