Маленьке життя (2008) | Розширена версія

Нові коментарі

Нова тема   Відповісти
Автор Повідомлення
Anonymous 







2018-09-07 10:12  
Маленьке життя (2008) | Розширена версія

Маленьке життя (2008) | Розширена версія


Жанр: дитячий, драма, біографічний
Країна: Україна

Кінокомпанія: Група компаній "Фокстрот", Одеська кіностудія, ТО "Одисей"
Режисер: Олександр Жовна
Актори: Кирило Сосницький, Ігор Божко, Василь Яковець, Борис Луньов, Михайло Горносталь, Олександр Жовна, Марія Кротик, Анастасія Жовна, Галина Кобзар-Слободянюк, Іван Отелепко, Людмила Лозова, Георгій Дігам, В'ячеслав Карпов, Микола Яценко та інші

Сюжет:
Фільм розповідає про долю маленького хлопчика Пилипка. Голодної зими 1932-1933 років помирає його мати. Хлопчика забирає до себе дядько, але Пилипко тікає з його будинку на пошуки матері. В лісі він заблукав і ледь не замерз. Від смерті дитину рятують два ченці і забирають його до себе в монастир. Там він вчиться писати ікони і виявляється дуже здібним художником. Згодом в монастир приїжджає француз. Його юна дочка дуже хвора, і хлопчик щиро бажає її одужання. Дізнавшись, що для цього потрібно молитися Святому Пантелеймону, Пилипко вирішує намалювати його ікону і допомогти дівчинці.

Екранізація однойменного оповідання Олександра Жовни.
Онлайн перегляд короткометражної версії (38 хв.):

Тривалість: 00:57:34 [Розширена версія]
Якість: [Hurtom, джерело - DVD5]
Відео:
кодек:
розмір кадру: 688х512
бітрейт: 1799 кб/с

Аудіо:
мова: українська
переклад: оригінал
кодек: 2.0
бітрейт: 256 кб/с
Info
Код:
General
Complete name               : Malenke zhyttia [Extended Cut] (2008) [Ukr] [Hurtom].avi
Format                      : AVI
Format/Info                 : Audio Video Interleave
File size                   : 851 MiB
Duration                    : 57 min 34 s
Overall bit rate            : 2 065 kb/s
Movie name                  : Маленьке життя [Розширена версія] (2008) [Ukr] [Hurtom]
Genre                       : дитячий, драма, біографічний
Recorded date               : 07.09.2018
Writing application         : VirtualDubModUkr 1.5.10.2 (build 2542/release)
Writing library             : VirtualDubMod build 2542/release
Comment                     : https://toloka.to/t94908

Video
ID                          : 0
Format                      : MPEG-4 Visual
Format profile              : Advanced [email protected]
Format settings             : BVOP1
Format settings, BVOP       : 1
Format settings, QPel       : No
Format settings, GMC        : No warppoints
Format settings, Matrix     : Default (MPEG)
Codec ID                    :
Codec ID/Hint               :
Duration                    : 57 min 34 s
Bit rate                    : 1 799 kb/s
Width                       : 688 pixels
Height                      : 512 pixels
Display aspect ratio        : 4:3
Frame rate                  : 25.000 FPS
Color space                 : YUV
Chroma subsampling          : 4:2:0
Bit depth                   : 8 bits
Scan type                   : Progressive
Compression mode            : Lossy
Bits/(Pixel*Frame)          : 0.204
Stream size                 : 741 MiB (87%)
Writing library             : 67

Audio
ID                          : 1
Format                      : AC-3
Format/Info                 : Audio Coding 3
Commercial name             : Dolby Digital
Codec ID                    : 2000
Duration                    : 57 min 34 s
Bit rate mode               : Constant
Bit rate                    : 256 kb/s
Channel(s)                  : 2 channels
Channel layout              : L R
Sampling rate               : 48.0 kHz
Frame rate                  : 31.250 FPS (1536 SPF)
Bit depth                   : 16 bits
Compression mode            : Lossy
Stream size                 : 105 MiB (12%)
Alignment                   : Split accross interleaves
Interleave, duration        : 40  ms (1.00 video frame)
Interleave, preload duratio : 500  ms
Service kind                : Complete Main


Джерело:
Подяка lpershyi за DVD диск.



Золотий реліз (завантажене не впливає на рейтинг)
 Трекер:    Зареєстрований   

Завантажити / скачати український фільм



відео для новачків



 Зареєстрований:   2018-09-07 10:55
 Розмір:   851 MB 
 Оцінка фільму:   9.5/10 (Голосів: 4)
   
Ваш часовий пояс: GMT + 2 Години

Нова тема   Відповісти