Маленьке життя (2008) -AVC | Розширена версія

Нові коментарі

Нова тема   Відповісти
Автор Повідомлення
Anonymous 







2018-09-07 09:33  
Маленьке життя (2008) -AVC | Розширена версія

Маленьке життя (2008) -AVC | Розширена версія


Жанр: дитячий, драма, біографічний
Країна: Україна

Кінокомпанія: Група компаній "Фокстрот", Одеська кіностудія, ТО "Одисей"
Режисер: Олександр Жовна
Актори: Кирило Сосницький, Ігор Божко, Василь Яковець, Борис Луньов, Михайло Горносталь, Олександр Жовна, Марія Кротик, Анастасія Жовна, Галина Кобзар-Слободянюк, Іван Отелепко, Людмила Лозова, Георгій Дігам, В'ячеслав Карпов, Микола Яценко та інші

Сюжет:
Фільм розповідає про долю маленького хлопчика Пилипка. Голодної зими 1932-1933 років помирає його мати. Хлопчика забирає до себе дядько, але Пилипко тікає з його будинку на пошуки матері. В лісі він заблукав і ледь не замерз. Від смерті дитину рятують два ченці і забирають його до себе в монастир. Там він вчиться писати ікони і виявляється дуже здібним художником. Згодом в монастир приїжджає француз. Його юна дочка дуже хвора, і хлопчик щиро бажає її одужання. Дізнавшись, що для цього потрібно молитися Святому Пантелеймону, Пилипко вирішує намалювати його ікону і допомогти дівчинці.

Екранізація однойменного оповідання Олександра Жовни.


Тривалість: 00:57:34 [Розширена версія]
Якість: -AVC [Hurtom, джерело - DVD5]
Відео:
кодек:
розмір кадру: 696х520
бітрейт: 1817 кб/с

Аудіо:
мова: українська
переклад: оригінал
кодек: 2.0
бітрейт: 256 кб/с
Info та log
Код:
Complete name               : Malenke zhyttia [Extended Cut] (2008) [Ukr] -AVC [Hurtom].
Format                      :
Format version              : Version 4
File size                   : 855 MiB
Duration                    : 57 min 34 s
Overall bit rate            : 2 075 kb/s
Movie name                  : Маленьке життя [Розширена версія] (2008) [Ukr] -AVC [Hurtom]
Released date               : 2008
Encoded date                : UTC 2018-09-07 07:34:36
Writing application         : v26.0.0 ('In The Game') 64-bit
Writing library             : libebml v1.3.6 + v1.4.9
Cover                       : Yes
Comment                     : Розширена версія
Attachments                 : cover.jpg
DIRECTOR                    : Олександр Жовна
GENRE                       : дитячий, драма, біографічний
SYNOPSIS                    : Фільм розповідає про долю маленького хлопчика Пилипка. Голодної зими 1932-1933 років помирає його мати. Хлопчика забирає до себе дядько, але Пилипко тікає з його будинку на пошуки матері. В лісі він заблукав і ледь не замерз. Від смерті дитину рятують два ченці і забирають його до себе в монастир. Там він вчиться писати ікони і виявляється дуже здібним художником. Згодом в монастир приїжджає француз. Його юна дочка дуже хвора, і хлопчик щиро бажає її одужання. Дізнавшись, що для цього потрібно молитися Святому Пантелеймону, Пилипко вирішує намалювати його ікону і допомогти дівчинці. /  / Екранізація однойменного оповідання Олександра Жовни.
Url                         : https://toloka.to/t94907

Video
ID                          : 1
Format                      : AVC
Format/Info                 : Advanced Video Codec
Format profile              : [email protected]
Format settings             : CABAC / 9 Ref Frames
Format settings, CABAC      : Yes
Format settings, ReFrames   : 9 frames
Codec ID                    : V_MPEG4/ISO/AVC
Duration                    : 57 min 34 s
Bit rate                    : 1 817 kb/s
Width                       : 696 pixels
Height                      : 520 pixels
Display aspect ratio        : 4:3
Frame rate mode             : Constant
Frame rate                  : 25.000 FPS
Color space                 : YUV
Chroma subsampling          : 4:2:0
Bit depth                   : 8 bits
Scan type                   : Progressive
Bits/(Pixel*Frame)          : 0.201
Stream size                 : 748 MiB (88%)
Title                       : Маленьке життя (2008) -AVC [Hurtom]
Writing library             : core 155 r2901 7d0ff22
Encoding settings           : cabac=1 / ref=9 / deblock=1:-1:-1 / analyse=0x3:0x133 / me=umh / subme=10 / psy=1 / psy_rd=1.00:0.15 / mixed_ref=1 / me_range=32 / chroma_me=1 / trellis=2 / 8x8dct=1 / cqm=0 / deadzone=21,11 / fast_pskip=0 / chroma_qp_offset=-3 / threads=12 / lookahead_threads=3 / sliced_threads=0 / nr=0 / decimate=1 / interlaced=0 / bluray_compat=0 / constrained_intra=0 / bframes=12 / b_pyramid=2 / b_adapt=2 / b_bias=0 / direct=3 / weightb=1 / open_gop=0 / weightp=2 / keyint=250 / keyint_min=25 / scenecut=40 / intra_refresh=0 / rc_lookahead=60 / rc=crf / mbtree=0 / crf=18.0 / qcomp=0.60 / qpmin=0 / qpmax=69 / qpstep=4 / vbv_maxrate=62500 / vbv_bufsize=78125 / crf_max=0.0 / nal_hrd=none / filler=0 / ip_ratio=1.40 / pb_ratio=1.30 / aq=3:0.80
Language                    : Ukrainian
Default                     : Yes
Forced                      : No

Audio
ID                          : 2
Format                      : AC-3
Format/Info                 : Audio Coding 3
Commercial name             : Dolby Digital
Codec ID                    : A_AC3
Duration                    : 57 min 34 s
Bit rate mode               : Constant
Bit rate                    : 256 kb/s
Channel(s)                  : 2 channels
Channel layout              : L R
Sampling rate               : 48.0 kHz
Frame rate                  : 31.250 FPS (1536 SPF)
Bit depth                   : 16 bits
Compression mode            : Lossy
Stream size                 : 105 MiB (12%)
Title                       : Original, 2.0 256 Kbps
Language                    : Ukrainian
Service kind                : Complete Main
Default                     : Yes
Forced                      : No


Код:
raw [info]: 696x520p 1:1 @ 25/1 fps (cfr)
[info]: using SAR=1/1
[info]: using cpu capabilities: MMX2 SSE2Fast SSSE3 SSE4.2 AVX
[info]: profile High, level 4.1
[info]: frame I:535   Avg QP:15.63  size: 38407
[info]: frame P:14414 Avg QP:16.68  size: 16811
[info]: frame B:71423 Avg QP:18.94  size:  7308
[info]: consecutive B-frames:  0.9%  0.7%  2.1%  8.6% 13.3% 34.6% 14.3%  8.4%  4.9%  3.4%  2.2%  5.1%  1.4%
[info]: mb I  I16..4:  9.1% 66.3% 24.6%
[info]: mb P  I16..4:  3.3% 13.6%  2.4%  P16..4: 37.5% 22.6% 14.6%  0.5%  0.2%    skip: 5.4%
[info]: mb B  I16..4:  0.8%  1.7%  0.2%  B16..8: 34.0% 12.7%  2.7%  direct:16.0%  skip:31.9%  L0:49.4% L1:35.8% BI:14.8%
[info]: 8x8 transform intra:67.4% inter:57.2%
[info]: direct mvs  spatial:99.7% temporal:0.3%
[info]: coded y,uvDC,uvAC intra: 61.8% 68.3% 45.8% inter: 31.1% 29.1% 2.4%
[info]: i16 v,h,dc,p: 57% 16%  9% 18%
[info]: i8 v,h,dc,ddl,ddr,vr,hd,vl,hu: 17% 10% 21%  6%  8%  9%  8%  9% 10%
[info]: i4 v,h,dc,ddl,ddr,vr,hd,vl,hu: 20% 10% 12%  7% 11% 11% 10%  9% 10%
[info]: i8c dc,h,v,p: 36% 29% 23% 11%
[info]: Weighted P-Frames: Y:20.3% UV:8.5%
[info]: ref P L0: 36.3%  9.2% 18.6%  9.1%  7.9%  5.8%  5.6%  3.4%  3.5%  0.5%  0.0%
[info]: ref B L0: 58.2% 15.6%  9.2%  5.6%  4.6%  3.8%  2.4%  0.7%
[info]: ref B L1: 91.3%  8.7%
[info]: kb/s:1817.33
encoded 86372 frames, 15.43 fps, 1817.33 kb/s
Final statistics
Constant Quality Mode: Quality 18 computed...
Video Bitrate Obtained (approximate): 1817 kbit/s


Джерело:
Подяка lpershyi за DVD диск.



Золотий реліз (завантажене не впливає на рейтинг)
 Трекер:    Зареєстрований   

Завантажити / скачати український фільм



відео для новачків



 Зареєстрований:   2018-09-07 09:42
 Розмір:   855 MB 
 Оцінка фільму:   9.5/10 (Голосів: 12)
   
Anonymous 







2018-09-07 09:57  
Короткометражну версію (38 хв.) можна переглянути онлайн:

hetzendorf 
Забанено
Забанено


З нами з: 23.07.15
Востаннє: 05.01.21
Повідомлень: 2966

2018-09-07 14:31  
Anonymous написано:
Його юна дочка дуже хвора, і хлопчик щиро бажає її одужання. Дізнавшись, що для цього потрібно молитися Святому Пантелеймону, Пилипко вирішує намалювати його ікону і допомогти дівчинці.

Замість піти вчитися на лікаря чи фармацевта? Ой-вей, пропаганда псевдонаукового шарлатанства! Яке зараз століття надворі? Фу фу фу, нафіг-нафіг!

Anonymous 







2018-09-07 14:35  
hetzendorf,
він скоро помер, і не встиг би ні на кого вивчитись, навіть на експрес-курсах. Тому робив, що міг з тим що було.

hetzendorf 
Забанено
Забанено


З нами з: 23.07.15
Востаннє: 05.01.21
Повідомлень: 2966

2018-09-07 14:38  
Anonymous
тим не менш, ефекту від того, що він робив, був нуль, не зважаючи ні на що.

lpershyi 
Попереджень: 2
Попереджень: 2 


З нами з: 04.01.11
Востаннє: 17.12.20
Повідомлень: 2877

2018-09-23 12:38  
Anonymous написано:
[Hurtom, джерело - DVD5]
Чому спотворено мій нікнейм? Я ЛПерший, латиницею на писмі "Lpershyi". Виправте, будь ласка, дякую.
Vanilinka 
Новенький


З нами з: 18.02.11
Востаннє: 28.02.21
Повідомлень: 23

2020-05-14 13:32  
Українська класика, про сирітку.
Ваш часовий пояс: GMT + 2 Години

Нова тема   Відповісти