Незнайомець / The Stranger (1946) Remux 1080p Ukr/Eng

Нові коментарі

Нова тема   Відповісти
Автор Повідомлення
urij546724 
Відео Гуртом - фільмокрай
Відео Гуртом - фільмокрай


З нами з: 16.03.10
Востаннє: 12.12.18
Повідомлень: 5499

2018-09-06 15:28  
Незнайомець / The Stranger (1946) Remux 1080p Ukr/Eng



Жанр: кримінальний, драма, фільм-нуар, детектив, трилер
Країна: США



Кіностудія / кінокомпанія: International Pictures (I),The Haig Corporation
Режисер: Орсон Веллс (Orson Welles)
Актори: Едвард Джей Робінсон (Edward G. Robinson), Лоретта Янг (Loretta Young), Орсон Веллс (Orson Welles), Філіп Мерівейл (Philip Merivale), Річард Лонг (Richard Long), Костянтин Шейн (Konstantin Shayne), Байрон Кейз (Byron Keith), Біллі Хаус (Billy House), Марта Вентуорф (Martha Wentworth)...

Сюжет:
Дія відбувається після Другої світової війни. Вілсон, федеральний агент, отримує завдання знайти Франца Кіндлера, одного з організаторів геноциду єврейського народу. Сліди приводять його в сонне університетське містечко Хартфорд в штаті Коннектикут, де, як він підозрює, під ім'ям професора Чарлза Ренкіна ховається Кіндлер.


Тривалість: 01:34:58
Якість: Remux 1080p
Відео:
кодек:
розмір кадру: 1920 х 1080
бітрейт: 21,1 Мб/с
частота кадрів: 23.976 к/с (fps)

Аудіо #1:
мова: українська
переклад: двоголосий закадровий
кодек: 2.0
бітрейт: 192 кб/с
запис звуку з каналу: Enter-фільм
озвучено: Інтер
Моменти без перекладу:
00:19:06 - 00:19:27
00:26:32 - 00:26:36
00:37:11 - 00:38:22
00:49:45 - 00:49:46
00:58:25 - 00:58:39
01:09:23 - 01:09:24
01:13:03 - 01:13:05
01:17:24 - 01:17:25
01:29:14 - 01:29:16
01:34:36 - 01:34:44
Аудіо #2:
мова: англійська
переклад: оригінал
кодек: 5.1
бітрейт: 448 кб/с

Субтитри #1:
мова: українська
тип: програмні (м'які)
формат: *.srt
примітка: на моменти без перекладу
Media info:
General
Unique ID : 187523869821181259312476352450701992328 (0x8D13C89B29B6EF31A295C3CC0EBAA188)
Format :
Format version : Version 2
File size : 14.7 GiB
Duration : 1 h 34 min
Overall bit rate mode : Variable
Overall bit rate : 22.2 Mb/s
Movie name : The Stranger (1946) [Ukr.Inter_Eng_AC3] Remux 1080p [Hurtom] by urij546724
Encoded date : UTC 2018-09-05 16:26:32
Writing application : v2.9.7 ('Tenderness') built on Jul 1 2009 18:43:35
Writing library : libebml v0.7.7 + v0.8.1
Attachments : The Stranger (1946) [Ukr.Inter_Eng_AC3] Remux 1080p [Hurtom] by urij546724.jpg

Video
ID : 1
Format : AVC
Format/Info : Advanced Video Codec
Format profile : [email protected]
Format settings : CABAC / 3 Ref Frames
Format settings, CABAC : Yes
Format settings, ReFrames : 3 frames
Format settings, GOP : M=3, N=12
Codec ID : V_MPEG4/ISO/AVC
Duration : 1 h 34 min
Bit rate mode : Variable
Bit rate : 21.1 Mb/s
Maximum bit rate : 35.0 Mb/s
Width : 1 920 pixels
Height : 1 080 pixels
Display aspect ratio : 16:9
Frame rate mode : Constant
Frame rate : 23.976 (24000/1001) FPS
Standard : NTSC
Color space : YUV
Chroma subsampling : 4:2:0
Bit depth : 8 bits
Scan type : Progressive
Bits/(Pixel*Frame) : 0.425
Stream size : 14.0 GiB (95%)
Title : The Stranger (1946) Remux 1080p [Hurtom] by urij546724
Language : English
Default : Yes
Forced : No
Color range : Limited
Color primaries : BT.709
Transfer characteristics : BT.709
Matrix coefficients : BT.709

Audio #1
ID : 2
Format : AC-3
Format/Info : Audio Coding 3
Codec ID : A_AC3
Duration : 1 h 34 min
Bit rate mode : Constant
Bit rate : 192 kb/s
Channel(s) : 2 channels
Channel positions : Front: L R
Sampling rate : 48.0 kHz
Frame rate : 31.250 FPS (1536 SPF)
Bit depth : 16 bits
Compression mode : Lossy
Stream size : 130 MiB (1%)
Title : Українська доріжка
Language : Ukrainian
Service kind : Complete Main
Default : Yes
Forced : Yes

Audio #2
ID : 3
Format : AC-3
Format/Info : Audio Coding 3
Codec ID : A_AC3
Duration : 1 h 34 min
Bit rate mode : Constant
Bit rate : 448 kb/s
Channel(s) : 6 channels
Channel positions : Front: L C R, Side: L R, LFE
Sampling rate : 48.0 kHz
Frame rate : 31.250 FPS (1536 SPF)
Bit depth : 16 bits
Compression mode : Lossy
Stream size : 304 MiB (2%)
Title : Оригінальна доріжка
Language : English
Service kind : Complete Main
Default : No
Forced : No

Text
ID : 4
Format : UTF-8
Codec ID : S_TEXT/UTF8
Codec ID/Info : UTF-8 Plain Text
Title : Українські субтитри (форсовані)
Language : Ukrainian
Default : Yes
Forced : Yes
Скріншоти:





Трейлер:


Семпл
Джерело 1_________Джерело 2_________Джерело 3_________Джерело 4_________Джерело 5
У випадку, якщо з усіх джерел семпл видалять, прохання повідомити мені у ПРИВАТ


Подяка:

1. Пану Hulk1987 за запис звуку з ТБ.


Джерело:


Золотий реліз (завантажене не впливає на рейтинг)
 Трекер:    Зареєстрований   

Завантажити / скачати фільм українською



відео для новачків



 Зареєстрований:   2018-09-06 15:28
 Розмір:   14.73 GB 
 Оцінка фільму:   10/10 (Голосів: 2)
 Прохання залишати коментарі і не тікати з роздачі.
   
Інші релізи
   Незнайомець / The Stranger (1946) Ukr/Eng Arsenfpu  5 / 0   1.59 GB   2018-11-23 17:03 
Ваш часовий пояс: GMT + 2 Години

Нова тема   Відповісти