Поліція Парадайз (Сезон 1, Серія 1-2) / Paradise PD (Season 1, Episode 1-2) (2018) 1080p Ukr/Eng | Sub Eng

Нові коментарі

Нова тема   Відповісти
Останній раз роздавалося jaral (2018-12-13)
Автор Повідомлення
dima_2004 
Свій


З нами з: 30.05.16
Востаннє: 12.12.18
Повідомлень: 83

2018-09-06 13:57  
Поліція Парадайз (Сезон 1, Серія 1-2) / Paradise PD (Season 1, Episode 1-2) (2018) 1080p Ukr/Eng | Sub Eng

Поліція Парадайз (Сезон 1, Серія 1-2) / Paradise PD (Season 1, Episode 1-2) (2018) 1080p Ukr/Eng | Sub Eng


На озвучення проводиться збір коштів. Всі деталі тут:



Жанр: комедія, чорний гумор, сатира, кримінальний
Країна: США
Жанр: мультсеріал, комедія



Кінокомпанія: Bento Box Animation, NetFlix, Odenkirk Provissiero Entertainment
Режисер: Вако Оджин, Роджер Блек
Актори: Дена Снайдер, Седрик Ярбро, Девид Херман, Том Кенні, Сара Чок, Кайл Кінан

Сюжет:
Головні герої - дуже погані копи. Не в тому сенсі, що вони небезпечні та круті. Ні, вони в буквальному сенсі відверто лайнові поліцейські.


Тривалість: 1 серія: 28:00 (цілком серій: 2/10)
Перелік серій
01. Welcome to Paradise/ 01. Ласкаво просимо в Парадайз
02. on the Line/ 02. Дупа на лінії
03. Black & Blue
04. Karla
05. Dungeons & Dragnet
06. Meet the Jabowskis
07. Police Academy
08. Task Force
09. Parent Trap
10. Christmas in Paradise
Якість: 1080p
Відео:
кодек:
розмір кадру: 1920x1080
бітрейт: ~ 2 100 кб/с

Аудіо # 1:
мова: українська
переклад: багатоголосий закадровий
кодек: 5.1
бітрейт: 448 кб/с

Аудіо # 2:
мова: англійська
переклад: оригінал
кодек: E- 5.1
бітрейт: 640 кб/с

Субтитри:
мова: англійська
тип: програмні (м'які)
формат: *.srt
Info
General
Unique ID : 338212326045222865489572463895785094392 (0xFE71531AE51FC40DF07D941D31A5BCF8)
Complete name : D:\DIMA\FILMS\Paradise.PD.S01.1080p.NF..DDP5.1.-dima_2004\Paradise.PD.S01E01.1080p.NF..DDP5.1.-dima_2004.
Format :
Format version : Version 4 / Version 2
File size : 670 MiB
Duration : 29mn 32s
Overall bit rate mode : Variable
Overall bit rate : 3 172 Kbps
Encoded date : UTC 2018-09-15 16:29:07
Writing application : v24.0.0 ('Beyond The Pale') 64-bit
Writing library : libebml v1.3.6 + v1.4.9
DURATION : 00:29:32.160000000
NUMBER_OF_FRAMES : 55380
NUMBER_OF_BYTES : 99240960
_STATISTICS_WRITING_APP : v24.0.0 ('Beyond The Pale') 64-bit
_STATISTICS_WRITING_DATE_UTC : 2018-09-15 16:29:07
_STATISTICS_TAGS : BPS DURATION NUMBER_OF_FRAMES NUMBER_OF_BYTES

Video
ID : 1
Format : AVC
Format/Info : Advanced Video Codec
Format profile : [email protected]
Format settings, CABAC : Yes
Format settings, ReFrames : 3 frames
Codec ID : V_MPEG4/ISO/AVC
Duration : 29mn 32s
Bit rate mode : Variable
Bit rate : 2 021 Kbps
Nominal bit rate : 2 150 Kbps
Maximum bit rate : 3 225 Kbps
Width : 1 920 pixels
Height : 1 080 pixels
Display aspect ratio : 16:9
Frame rate mode : Constant
Frame rate : 23.976 fps
Color space : YUV
Chroma subsampling : 4:2:0
Bit depth : 8 bits
Scan type : Progressive
Bits/(Pixel*Frame) : 0.041
Stream size : 427 MiB (64%)
Writing library : core 148 r2715 7e75228
Encoding settings : cabac=1 / ref=3 / deblock=1:0:0 / analyse=0x1:0x111 / me=umh / subme=10 / psy=1 / psy_rd=1.00:0.00 / mixed_ref=1 / me_range=24 / chroma_me=1 / trellis=2 / 8x8dct=0 / cqm=0 / deadzone=21,11 / fast_pskip=1 / chroma_qp_offset=-2 / threads=8 / lookahead_threads=1 / sliced_threads=0 / nr=0 / decimate=1 / interlaced=0 / bluray_compat=0 / stitchable=1 / constrained_intra=0 / bframes=2 / b_pyramid=0 / b_adapt=2 / b_bias=0 / direct=3 / weightb=1 / open_gop=0 / weightp=2 / keyint=48 / keyint_min=25 / scenecut=0 / intra_refresh=0 / rc_lookahead=48 / rc=2pass / mbtree=1 / bitrate=2150 / ratetol=1.0 / qcomp=0.50 / qpmin=6 / qpmax=51 / qpstep=4 / cplxblur=20.0 / qblur=0.5 / vbv_maxrate=3225 / vbv_bufsize=4300 / nal_hrd=vbr / filler=0 / ip_ratio=1.40 / aq=1:1.00
Default : Yes
Forced : No

Audio #1
ID : 2
Format : AC-3
Format/Info : Audio Coding 3
Mode extension : CM (complete main)
Format settings, Endianness : Big
Codec ID : A_AC3
Duration : 29mn 32s
Bit rate mode : Constant
Bit rate : 448 Kbps
Channel(s) : 6 channels
Channel positions : Front: L C R, Side: L R, LFE
Sampling rate : 48.0 KHz
Bit depth : 16 bits
Compression mode : Lossy
Stream size : 94.6 MiB (14%)
Language : Ukrainian
Default : No
Forced : Yes

Audio #2
ID : 3
Format : E-AC-3
Format/Info : Audio Coding 3
Format settings, Endianness : Big
Codec ID : A_EAC3
Duration : 29mn 32s
Bit rate mode : Constant
Bit rate : 640 Kbps
Channel(s) : 6 channels
Channel positions : Front: L C R, Side: L R, LFE
Sampling rate : 48.0 KHz
Compression mode : Lossy
Stream size : 135 MiB (20%)
Title : English
Language : English
Default : Yes
Forced : No

Text #1
ID : 4
Format : UTF-8
Codec ID : S_TEXT/UTF8
Codec ID/Info : UTF-8 Plain Text
Language : English
Default : No
Forced : No

Text #2
ID : 5
Format : UTF-8
Codec ID : S_TEXT/UTF8
Codec ID/Info : UTF-8 Plain Text
Title : SDH
Language : English
Default : No
Forced : No
Опис серій
S01E01
Кевін Кроуфорд стає повнолітнім і нарешті може приєднатися до поліцейського загону, яким керує його батько. Одночасно з цією подією на вулицях міста з'являється новий різновид наркотиків.
S01E02
Куля знаходить свою славу і популярність в підпільних собачих боях, тим часом шеф Кроуфорд зстрічається зі своїм старим конкурентом в шаленій справі про вбивство.
Скріншоти






Джерело: & &
Особиста оцінка: 8 - мені сподобалося


Авторський реліз (завантажувати можна без реєстрації)
 Трекер:    Зареєстрований   

Завантажити / скачати мультфільм українською



відео для новачків



 Зареєстрований:   2018-10-13 09:43
 Розмір:   1.16 GB 
 Оцінка мультсеріалу:   10/10 (Голосів: 4)
   
bot 
робот


З нами з: 30.09.07
Востаннє: 26.05.05
Повідомлень: 20337

2018-09-06 13:57  
Тему перенесено з Мультсеріали в HD до форуму Анонси релізів


dima_2004

bot 
робот


З нами з: 30.09.07
Востаннє: 26.05.05
Повідомлень: 20337

2018-09-15 18:18  
Тему перенесено з Анонси релізів до форуму Мультсеріали в HD


dima_2004

munipet 
Поважний учасник


З нами з: 14.04.11
Востаннє: 12.12.18
Повідомлень: 239

2018-09-16 07:48  
Якихось демонів в аніме і всяку бридоту аморальну перекладають а як щось нормальне то ні
я бачу куди справи підуть з далеку !

jaral 
Відео Гуртом - підтримка та поширення
Відео Гуртом - підтримка та поширення


З нами з: 18.10.07
Востаннє: 12.12.18
Повідомлень: 695

2018-09-20 01:53  
munipet написано:
а як щось нормальне то ні
Саме так. Я помітив, що на Толоці безкарно перекладають та поширюють продукти з елементами російської пропаганди.
Gans080808 
Новенький


З нами з: 10.11.12
Востаннє: 09.12.18
Повідомлень: 9

2018-12-08 13:50  
munipet
Мораліст знайшовся. Твоєї думки хтось питав?

Ваш часовий пояс: GMT + 2 Години

Нова тема   Відповісти