Земля мертвих [Режисерська версія] / Land of the Dead [Unrated Director's cut] (2005) Remux 1080p Ukr/Eng | Sub Eng

Нові коментарі

Нова тема   Відповісти
Автор Повідомлення
staf777 
Попереджень: 1
Попереджень: 1 


З нами з: 16.11.16
Востаннє: 13.12.18
Повідомлень: 1909

2018-09-06 13:09  
Земля мертвих [Режисерська версія] / Land of the Dead [Unrated Director's cut] (2005) Remux 1080p Ukr/Eng | Sub Eng

Земля мертвих [Режисерська версія] / Land of the Dead [Unrated Director's cut] (2005) Remux 1080p Ukr/Eng | Sub Eng


Жанр: жахи
Країна: Канада, Франція, США



Кінокомпанія: Universal Pictures, Atmosphere Entertainment MM, Exception Wild Bunch
Режисер: Джордж Ромеро (George A. Romero)
Актори: Саймон Бекер (Simon Baker), Джон Леґіузамо (John Leguizamo), Денніс Гоппер (Dennis Hopper), Азія Ардженто (Asia Argento) та інші.

Сюжет:
Зомбі заволоділи всією планетою. Ті люди що залишилися в живих створили своєрідні острівці життя, обгороджені стінами, ровами і колючим дротом. В одному з таких міст, оточеному неприступною стіною, люди намагаються врятуватися. Однак скоро і вони опиняться під загрозою з боку нових, досконаліших і небезпечніших істот.


Тривалість: 01:36:52
Якість: Remux 1080p
Відео:
кодек: VC-1
розмір кадру: 1920x1080
бітрейт: 19 Мб/с

Аудіо # 1:
мова: українська
переклад: багатоголосий закадровий
кодек: 2.0
бітрейт: 192 кб/с

Аудіо # 2:
мова: англійська
переклад: оригінал
кодек: -HD MA 5.1
бітрейт: 4188 кб/с

Субтитри:
мова: англійська
тип: пререндерні
формат: *.pgs
Info
General
Unique ID : 279885985646636349051559122211545577070 (0xD290147FEF20911B3122E99AEA40766E)
Complete name : S:\Land of the Dead [Unrated Director's cut] (2005) Remux 1080p [UKR_ENG] [Hurtom].
Format :
Format version : Version 4 / Version 2
File size : 15.8 GiB
Duration : 1 h 36 min
Overall bit rate : 23.4 Mb/s
Movie name : Land of the Dead [Unrated Director's cut] (2005) Remux 1080p [UKR_ENG] [Hurtom]
Encoded date : UTC 2018-09-06 14:12:00
Writing application : v24.0.0 ('Beyond The Pale') 64-bit
Writing library : libebml v1.3.6 + v1.4.9
Cover : Yes
Attachments : cover.jpg

Video
ID : 1
Format : VC-1
Format profile : [email protected]
Codec ID : V_MS/VFW/FOURCC / WVC1
Codec ID/Hint : Microsoft
Duration : 1 h 36 min
Bit rate : 19.0 Mb/s
Width : 1 920 pixels
Height : 1 080 pixels
Display aspect ratio : 16:9
Frame rate mode : Constant
Frame rate : 23.976 (24000/1001) FPS
Color space : YUV
Chroma subsampling : 4:2:0
Bit depth : 8 bits
Scan type : Progressive
Compression mode : Lossy
Bits/(Pixel*Frame) : 0.382
Stream size : 12.9 GiB (81%)
Default : Yes
Forced : No

Audio #1
ID : 2
Format : AC-3
Format/Info : Audio Coding 3
Codec ID : A_AC3
Duration : 1 h 36 min
Bit rate mode : Constant
Bit rate : 192 kb/s
Channel(s) : 2 channels
Channel positions : Front: L R
Sampling rate : 48.0 kHz
Frame rate : 31.250 FPS (1536 SPF)
Bit depth : 16 bits
Compression mode : Lossy
Stream size : 133 MiB (1%)
Title : [UA-MVO-NLO]
Language : Ukrainian
Service kind : Complete Main
Default : Yes
Forced : Yes

Audio #2
ID : 3
Format :
Format/Info : Digital Theater Systems
Format profile : MA / Core
Codec ID : A_DTS
Duration : 1 h 36 min
Bit rate mode : Variable / Constant
Bit rate : 4 188 kb/s / 1 509 kb/s
Channel(s) : 6 channels
Channel positions : Front: L C R, Side: L R, LFE
Sampling rate : 48.0 kHz
Frame rate : 93.750 FPS (512 SPF)
Bit depth : 24 bits
Compression mode : Lossless / Lossy
Delay relative to video : 42 ms
Stream size : 2.83 GiB (18%)
Language : English
Default : No
Forced : No

Text
ID : 4
Format : PGS
Muxing mode : zlib
Codec ID : S_HDMV/PGS
Codec ID/Info : Picture based subtitle format used on BDs/HD-DVDs
Duration : 1 h 31 min
Bit rate : 36.0 kb/s
Count of elements : 2396
Stream size : 23.5 MiB (0%)
Language : English
Default : No
Forced : No




Запис доріжки - POMEO, синхронізація - robotron005.
Джерело: &
Особиста оцінка: 8 - мені сподобалося


Золотий реліз (завантажене не впливає на рейтинг)
 Трекер:    Зареєстрований   

Завантажити / скачати фільм українською



відео для новачків



 Зареєстрований:   2018-09-06 18:39
 Розмір:   15.83 GB 
 Оцінка фільму:   8.5/10 (Голосів: 2)
   
bot 
робот


З нами з: 30.09.07
Востаннє: 26.05.05
Повідомлень: 20337

2018-09-06 18:38  
Тему перенесено з Анонси релізів до форуму Фільми в HD


staf777

Ваш часовий пояс: GMT + 2 Години

Нова тема   Відповісти