Земля мертвих [Режисерська версія] / Land of the Dead [Unrated Director's cut] (2005) 720p Ukr/Eng | Sub Eng

Нові коментарі

Нова тема   Відповісти
Автор Повідомлення
staf777 
Попереджень: 1
Попереджень: 1 


З нами з: 16.11.16
Востаннє: 13.12.18
Повідомлень: 1909

2018-09-06 13:03  
Земля мертвих [Режисерська версія] / Land of the Dead [Unrated Director's cut] (2005) 720p Ukr/Eng | Sub Eng

Земля мертвих [Режисерська версія] / Land of the Dead [Unrated Director's cut] (2005) 720p Ukr/Eng | Sub Eng


Жанр: жахи
Країна: Канада, Франція, США



Кінокомпанія: Universal Pictures, Atmosphere Entertainment MM, Exception Wild Bunch
Режисер: Джордж Ромеро (George A. Romero)
Актори: Саймон Бекер (Simon Baker), Джон Леґіузамо (John Leguizamo), Денніс Гоппер (Dennis Hopper), Азія Ардженто (Asia Argento) та інші.

Сюжет:
Зомбі заволоділи всією планетою. Ті люди що залишилися в живих створили своєрідні острівці життя, обгороджені стінами, ровами і колючим дротом. В одному з таких міст, оточеному неприступною стіною, люди намагаються врятуватися. Однак скоро і вони опиняться під загрозою з боку нових, досконаліших і небезпечніших істот.


Тривалість: 01:36:52
Якість: 720p
Відео:
кодек:
розмір кадру: 1280x544
бітрейт: 4700 кб/с

Аудіо # 1:
мова: українська
переклад: багатоголосий закадровий
кодек: 2.0
бітрейт: 192 кб/с

Аудіо # 2:
мова: англійська
переклад: оригінал
кодек: 5.1
бітрейт: 448 кб/с

Субтитри:
мова: англійська
тип: програмні (м'які)
формат: *.srt
Info
General
Unique ID : 324651198284573293714097944724099984353 (0xF43D8BE28EC3C8DA8CF4360C0EA26BE1)
Complete name : S:\Land of the Dead [Unrated Director's cut] (2005) 720p [UKR_ENG] [Hurtom].
Format :
Format version : Version 4 / Version 2
File size : 3.61 GiB
Duration : 1 h 36 min
Overall bit rate : 5 342 kb/s
Movie name : Land of the Dead [Unrated Director's cut] (2005) 720p [UKR_ENG] [Hurtom]
Encoded date : UTC 2018-09-06 10:33:00
Writing application : v24.0.0 ('Beyond The Pale') 64-bit
Writing library : libebml v1.3.6 + v1.4.9
Cover : Yes
Attachments : cover.jpg

Video
ID : 1
Format : AVC
Format/Info : Advanced Video Codec
Format profile : [email protected]
Format settings : CABAC / 9 Ref Frames
Format settings, CABAC : Yes
Format settings, ReFrames : 9 frames
Codec ID : V_MPEG4/ISO/AVC
Duration : 1 h 36 min
Bit rate : 4 700 kb/s
Width : 1 280 pixels
Height : 544 pixels
Display aspect ratio : 2.35:1
Frame rate mode : Constant
Frame rate : 23.976 (24000/1001) FPS
Color space : YUV
Chroma subsampling : 4:2:0
Bit depth : 8 bits
Scan type : Progressive
Bits/(Pixel*Frame) : 0.281
Stream size : 3.18 GiB (88%)
Writing library : core 146 r2538 121396c
Encoding settings : cabac=1 / ref=9 / deblock=1:-1:-1 / analyse=0x3:0x113 / me=umh / subme=10 / psy=1 / psy_rd=1.00:0.15 / mixed_ref=1 / me_range=32 / chroma_me=1 / trellis=2 / 8x8dct=1 / cqm=0 / deadzone=21,11 / fast_pskip=1 / chroma_qp_offset=-3 / threads=6 / lookahead_threads=1 / sliced_threads=0 / nr=0 / decimate=1 / interlaced=0 / bluray_compat=0 / constrained_intra=0 / bframes=8 / b_pyramid=2 / b_adapt=2 / b_bias=0 / direct=1 / weightb=1 / open_gop=0 / weightp=2 / keyint=230 / keyint_min=23 / scenecut=40 / intra_refresh=0 / rc_lookahead=40 / rc=crf / mbtree=0 / crf=18.7 / qcomp=0.60 / qpmin=0 / qpmax=69 / qpstep=4 / vbv_maxrate=40000 / vbv_bufsize=50000 / crf_max=0.0 / nal_hrd=none / filler=0 / ip_ratio=1.40 / pb_ratio=1.30 / aq=1:1.00
Language : English
Default : Yes
Forced : No

Audio #1
ID : 2
Format : AC-3
Format/Info : Audio Coding 3
Codec ID : A_AC3
Duration : 1 h 36 min
Bit rate mode : Constant
Bit rate : 192 kb/s
Channel(s) : 2 channels
Channel positions : Front: L R
Sampling rate : 48.0 kHz
Frame rate : 31.250 FPS (1536 SPF)
Bit depth : 16 bits
Compression mode : Lossy
Stream size : 133 MiB (4%)
Title : [UA-MVO-NLO]
Language : Ukrainian
Service kind : Complete Main
Default : Yes
Forced : Yes

Audio #2
ID : 3
Format : AC-3
Format/Info : Audio Coding 3
Codec ID : A_AC3
Duration : 1 h 36 min
Bit rate mode : Constant
Bit rate : 448 kb/s
Channel(s) : 6 channels
Channel positions : Front: L C R, Side: L R, LFE
Sampling rate : 48.0 kHz
Frame rate : 31.250 FPS (1536 SPF)
Bit depth : 16 bits
Compression mode : Lossy
Stream size : 310 MiB (8%)
Title : original
Language : English
Service kind : Complete Main
Default : No
Forced : No

Text
ID : 4
Format : UTF-8
Codec ID : S_TEXT/UTF8
Codec ID/Info : UTF-8 Plain Text
Duration : 1 h 31 min
Bit rate : 51 b/s
Count of elements : 1196
Stream size : 34.6 KiB (0%)
Language : English
Default : No
Forced : No
Скріншоти




Запис доріжки - POMEO(синхрон - robotron005)

Джерело: &
Особиста оцінка: 8 - мені сподобалося


 Трекер:    Зареєстрований   

Завантажити / скачати фільм українською



відео для новачків



 Зареєстрований:   2018-09-06 13:03
 Розмір:   3.61 GB 
 Оцінка фільму:   9.2/10 (Голосів: 5)
   
Ваш часовий пояс: GMT + 2 Години

Нова тема   Відповісти