Дивергент. Розділ 2: Інсургент / Дивергент. Інсургент / Insurgent (2015) Remux 1080p 2xUkr/Eng | Sub Eng

Нові коментарі

Нова тема   Відповісти
Останній раз роздавалося IronBee (2018-10-21)
Автор Повідомлення
IronBee 
Поважний учасник


З нами з: 08.02.10
Востаннє: 21.10.18
Повідомлень: 208

2018-09-06 11:10  
Дивергент. Розділ 2: Інсургент / Дивергент. Інсургент / Insurgent (2015) Remux 1080p 2xUkr/Eng | Sub Eng

Дивергент. Розділ 2: Інсургент / Дивергент. Інсургент / Insurgent (2015) Remux 1080p 2xUkr/Eng | Sub Eng


Жанр: бойовик, пригодницький, фантастика, трилер
Країна: США



Кінокомпанія: Red Wagon Entertainment, Mandeville Films, NeoReel
Режисер: Роберт Швентке / Robert Schwentke
Актори: Шейлін Вудлі / Shailene Woodley, Майлз Теллер / Miles Teller, Тео Джеймс / Theo James, Енсел Ельґорт / Ansel Elgort, Наомі Воттс / Naomi Watts, Джей Кортні / Jai Courtney, Кейт Вінслет / Kate Winslet та інші

Сюжет:
У новому розділі антиутопії про суспільство, де все розставлено по поличках, а будь-який прояв яскравої індивідуальності підлягає негайному викоріненню Тріс має знайти спосіб боротьби зі страшною системою, що знищує її близьких. Хто з них на черзі? Вона дізнається дедалі більше страшних подробиць, які стоять за цим уявним порядком, і вже не може не бачити, що в її світі пора щось змінювати. Але головне у цій боротьбі – дати раду з розколом, що його ворог породжує в її власній душі.


Тривалість: 01:59:00
Якість: Remux
Відео:
кодек:
розмір кадру: 1920х 1080
бітрейт: 18 Mб/с

Аудіо # 1:
мова: українська | CINE+
переклад: багатоголосий закадровий
кодек: 2.0
бітрейт: 192 кб/с

Аудіо # 2:
мова: українська | Line
переклад: професійний дубльований
кодек: 2.0
бітрейт: 192 кб/с

Аудіо # 3:
мова: англійська
переклад: оригінал
кодек: -HD MA 7.1
бітрейт: 3840 кб/с

Субтитри # 1-2:
мова: англійська (повні, SDH)
тип: програмні (м'які)
формат: *.srt
Info
General
Unique ID : 3600592185794666698809638469022175306 (0x2B572E6938746F89B2753DE7376D04A)
Complete name : E:\Films\Дивергент. Розділ 2 Інсургент Дивергент. Інсургент Insurgent (2015) Remux 1080p 2xUkrEng Sub Eng[Hurtom].
Format :
Format version : Version 4 / Version 2
File size : 18.4 GiB
Duration : 1 h 59 min
Overall bit rate mode : Variable
Overall bit rate : 22.2 Mb/s
Encoded date : UTC 2018-09-05 09:07:40
Writing application : v26.0.0 ('In The Game') 64-bit
Writing library : libebml v1.3.6 + v1.4.9

Video
ID : 1
Format : AVC
Format/Info : Advanced Video Codec
Format profile : [email protected]
Format settings : CABAC / 4 Ref Frames
Format settings, CABAC : Yes
Format settings, ReFrames : 4 frames
Format settings, GOP : M=3, N=12
Codec ID : V_MPEG4/ISO/AVC
Duration : 1 h 59 min
Bit rate mode : Variable
Bit rate : 18.0 Mb/s
Maximum bit rate : 36.5 Mb/s
Width : 1 920 pixels
Height : 1 080 pixels
Display aspect ratio : 16:9
Frame rate mode : Constant
Frame rate : 23.976 (24000/1001) FPS
Color space : YUV
Chroma subsampling : 4:2:0
Bit depth : 8 bits
Scan type : Progressive
Bits/(Pixel*Frame) : 0.362
Stream size : 14.9 GiB (81%)
Default : Yes
Forced : No

Audio #1
ID : 2
Format : AC-3
Format/Info : Audio Coding 3
Commercial name : Dolby Digital
Codec ID : A_AC3
Duration : 1 h 58 min
Bit rate mode : Constant
Bit rate : 192 kb/s
Channel(s) : 2 channels
Channel positions : Front: L R
Sampling rate : 48.0 kHz
Frame rate : 31.250 FPS (1536 SPF)
Bit depth : 16 bits
Compression mode : Lossy
Stream size : 163 MiB (1%)
Title : 2.0 192 кб/с багатоголосий закадровий | CINE+
Language : Ukrainian
Service kind : Complete Main
Default : Yes
Forced : No

Audio #2
ID : 3
Format : AC-3
Format/Info : Audio Coding 3
Commercial name : Dolby Digital
Codec ID : A_AC3
Duration : 1 h 59 min
Bit rate mode : Constant
Bit rate : 192 kb/s
Channel(s) : 2 channels
Channel positions : Front: L R
Sampling rate : 48.0 kHz
Frame rate : 31.250 FPS (1536 SPF)
Bit depth : 16 bits
Compression mode : Lossy
Stream size : 163 MiB (1%)
Title : 2.0 192 кб/с професійний дубльований | Line
Language : Ukrainian
Service kind : Complete Main
Default : No
Forced : No

Audio #3
ID : 4
Format :
Format/Info : Digital Theater Systems
Format profile : MA / Core
Codec ID : A_DTS
Duration : 1 h 59 min
Bit rate mode : Variable / Constant
Bit rate : 3 840 kb/s / 1 509 kb/s
Channel(s) : 8 channels / 6 channels
Channel positions : Front: L C R, Side: L R, Back: L R, LFE / Front: L C R, Side: L R, LFE
Sampling rate : 48.0 kHz
Frame rate : 93.750 FPS (512 SPF)
Bit depth : 24 bits
Compression mode : Lossless / Lossy
Stream size : 3.16 GiB (17%)
Language : English
Default : No
Forced : No

Text #1
ID : 5
Format : UTF-8
Codec ID : S_TEXT/UTF8
Codec ID/Info : UTF-8 Plain Text
Duration : 1 h 47 min
Bit rate : 44 b/s
Count of elements : 1180
Stream size : 35.2 KiB (0%)
Language : English
Default : No
Forced : No

Text #2
ID : 6
Format : UTF-8
Codec ID : S_TEXT/UTF8
Codec ID/Info : UTF-8 Plain Text
Duration : 1 h 47 min
Bit rate : 49 b/s
Count of elements : 1400
Stream size : 38.8 KiB (0%)
Title : SDH
Language : English
Default : No
Forced : No

Menu
00:00:00.000 : en:00:00:00.000
00:06:11.288 : en:00:06:11.288
00:13:35.398 : en:00:13:35.398
00:19:35.007 : en:00:19:35.007
00:26:39.431 : en:00:26:39.431
00:34:23.061 : en:00:34:23.061
00:41:13.846 : en:00:41:13.846
00:46:34.708 : en:00:46:34.708
00:53:10.103 : en:00:53:10.103
00:59:30.358 : en:00:59:30.358
01:05:59.664 : en:01:05:59.664
01:13:34.910 : en:01:13:34.910
01:22:57.931 : en:01:22:57.931
01:32:04.936 : en:01:32:04.936
01:39:09.360 : en:01:39:09.360
01:46:38.642 : en:01:46:38.642
Скріншоти




За доріжку №1 подяка панам Sando7 та drop_plz.

Джерело: &
Особиста оцінка: 0 - не дивився



Золотий реліз (завантажене не впливає на рейтинг)
 Трекер:    Зареєстрований   

Завантажити / скачати фільм українською



відео для новачків



 Зареєстрований:   2018-09-06 11:16
 Розмір:   18.43 GB 
 Оцінка фільму:   7/10 (Голосів: 6)
   
Ваш часовий пояс: GMT + 2 Години

Нова тема   Відповісти