Багно / Filth (2013) 1080p Ukr/Eng | Sub Eng

Нові коментарі

Нова тема   Відповісти
Автор Повідомлення
staf777 
Попереджень: 1
Попереджень: 1 


З нами з: 16.11.16
Востаннє: 21.10.18
Повідомлень: 1642

2018-09-06 09:06  
Багно / Filth (2013) 1080p Ukr/Eng | Sub Eng

Багно / Filth (2013) 1080p Ukr/Eng | Sub Eng


Жанр: комедія, кримінальний, драма
Країна: Велика Британія



Кінокомпанія: Steel Mill Pictures, Logie Pictures, Altitude Film Entertainment
Режисер: Джон С. Бейрд / Jon S. Baird
Актори: Джеймс МакЕвой / James McAvoy, Джемі Белл / Jamie Bell, Джим Броудбент / Jim Broadbent, Імоджен Путс / Imogen Poots, Джоан Фроґат / Joanne Frogatt та інші

Сюжет:

Головний герой - продажний шотландський поліцейський Брюс Робертсон, схиблений на сексі і кокаїні. Йому б треба розслідувати вбивство, але йому дуже заважають власні дивацтва, звичка розігрувати колег і біганина за дівчатами. За Робертсоном наглядають його напарник Рей Леннокс і начальник Боб Тоал...


Тривалість: 01:37:22
Якість: 1080p
Відео:
кодек:
розмір кадру: 1920x816
бітрейт: 12.5 Mб/с

Аудіо # 1:
мова: українська
переклад: двоголосий закадровий
кодек: 2.0
бітрейт: 192 кб/с

Аудіо # 2:
мова: англійська
переклад: оригінал
кодек: 5.1
бітрейт: 768 кб/с

Аудіо # 3:
мова: англійська
переклад: коментарі
кодек: 2.0
бітрейт: 192 кб/с

Субтитри:
мова: англійська
тип: програмні (м'які)
формат: *.srt
Info
General
Unique ID : 73275901196752773685895703330271134639 (0x37206CDBFBB917CFB59B6C0AD8A603AF)
Complete name : S:\Кинозал\ Filth (2013) 1080p [UKR_ENG] [Hurtom].
Format :
Format version : Version 4 / Version 2
File size : 9.26 GiB
Duration : 1 h 37 min
Overall bit rate : 13.6 Mb/s
Movie name : Filth (2013) 1080p [UKR_ENG] [Hurtom]
Encoded date : UTC 2018-09-06 06:05:06
Writing application : v24.0.0 ('Beyond The Pale') 64-bit
Writing library : libebml v1.3.6 + v1.4.9
Cover : Yes
Attachments : cover.jpg

Video
ID : 1
Format : AVC
Format/Info : Advanced Video Codec
Format profile : [email protected]
Format settings : CABAC / 4 Ref Frames
Format settings, CABAC : Yes
Format settings, ReFrames : 4 frames
Codec ID : V_MPEG4/ISO/AVC
Duration : 1 h 37 min
Bit rate : 12.5 Mb/s
Width : 1 920 pixels
Height : 816 pixels
Display aspect ratio : 2.35:1
Frame rate mode : Constant
Frame rate : 24.000 FPS
Color space : YUV
Chroma subsampling : 4:2:0
Bit depth : 8 bits
Scan type : Progressive
Bits/(Pixel*Frame) : 0.331
Stream size : 8.47 GiB (92%)
Title : -- STarankov
Writing library : core 142 r2431 ac76440
Encoding settings : cabac=1 / ref=4 / deblock=1:-1:-1 / analyse=0x3:0x113 / me=umh / subme=10 / psy=1 / psy_rd=1.00:0.15 / mixed_ref=1 / me_range=32 / chroma_me=1 / trellis=2 / 8x8dct=1 / cqm=0 / deadzone=21,11 / fast_pskip=1 / chroma_qp_offset=-3 / threads=6 / lookahead_threads=1 / sliced_threads=0 / nr=0 / decimate=1 / interlaced=0 / bluray_compat=0 / constrained_intra=0 / bframes=8 / b_pyramid=2 / b_adapt=2 / b_bias=0 / direct=3 / weightb=1 / open_gop=0 / weightp=2 / keyint=230 / keyint_min=23 / scenecut=40 / intra_refresh=0 / rc_lookahead=40 / rc=crf / mbtree=0 / crf=20.0 / qcomp=0.60 / qpmin=0 / qpmax=69 / qpstep=4 / vbv_maxrate=50000 / vbv_bufsize=62500 / crf_max=0.0 / nal_hrd=none / filler=0 / ip_ratio=1.40 / pb_ratio=1.30 / aq=1:1.00
Language : English
Default : Yes
Forced : No

Audio #1
ID : 2
Format : AC-3
Format/Info : Audio Coding 3
Codec ID : A_AC3
Duration : 1 h 37 min
Bit rate mode : Constant
Bit rate : 192 kb/s
Channel(s) : 2 channels
Channel positions : Front: L R
Sampling rate : 48.0 kHz
Frame rate : 31.250 FPS (1536 SPF)
Bit depth : 16 bits
Compression mode : Lossy
Stream size : 134 MiB (1%)
Title : [UA-DVO]
Language : Ukrainian
Service kind : Complete Main
Default : Yes
Forced : Yes

Audio #2
ID : 3
Format :
Format/Info : Digital Theater Systems
Codec ID : A_DTS
Duration : 1 h 37 min
Bit rate mode : Constant
Bit rate : 768 kb/s
Channel(s) : 6 channels
Channel positions : Front: L C R, Side: L R, LFE
Sampling rate : 48.0 kHz
Frame rate : 93.750 FPS (512 SPF)
Bit depth : 24 bits
Compression mode : Lossy
Stream size : 535 MiB (6%)
Language : English
Default : No
Forced : No

Audio #3
ID : 4
Format : AC-3
Format/Info : Audio Coding 3
Codec ID : A_AC3
Duration : 1 h 37 min
Bit rate mode : Constant
Bit rate : 192 kb/s
Channel(s) : 2 channels
Channel positions : Front: L R
Sampling rate : 48.0 kHz
Frame rate : 31.250 FPS (1536 SPF)
Bit depth : 16 bits
Compression mode : Lossy
Stream size : 134 MiB (1%)
Language : English
Service kind : Complete Main
Default : No
Forced : No

Text
ID : 5
Format : UTF-8
Codec ID : S_TEXT/UTF8
Codec ID/Info : UTF-8 Plain Text
Duration : 1 h 30 min
Bit rate : 73 b/s
Count of elements : 1221
Stream size : 48.9 KiB (0%)
Language : English
Default : No
Forced : No

Menu
00:00:00.000 : :Chapter 01
00:08:15.500 : :Chapter 02
00:15:56.790 : :Chapter 03
00:24:38.665 : :Chapter 04
00:32:36.125 : :Chapter 05
00:40:55.916 : :Chapter 06
00:48:00.457 : :Chapter 07
00:56:09.000 : :Chapter 08
01:03:43.833 : :Chapter 09
01:14:07.707 : :Chapter 10
01:19:14.957 : :Chapter 11
01:28:19.165 : :Chapter 12
Скріншоти



Джерело: &
Особиста оцінка: 0 - не дивився


 Трекер:    Зареєстрований   

Завантажити / скачати фільм українською



відео для новачків



 Зареєстрований:   2018-09-06 09:58
 Розмір:   9.26 GB 
 Оцінка фільму:   8.3/10 (Голосів: 7)
   
Інші релізи
   Багно / Filth (2013) 1080p H.265 Ukr/Eng | Sub Eng -Star-Lord-  8 / 0   3.71 GB   2018-09-27 13:05 
   Багно / Filth (2013) 720p Ukr/Eng | Sub Eng 11FrYkT  6 / 0   5.33 GB   2014-01-31 13:29 
   Багно / Filth (2013) AVC patriot2305  3 / 0   2.01 GB   2014-01-25 11:06 
   Багно / Filth (2013) patriot2305  9 / 0   1.22 GB   2014-01-25 07:30 
Ваш часовий пояс: GMT + 2 Години

Нова тема   Відповісти