Подвійна ставка / Hard Eight / Sydney (1996) 1080p Ukr/Eng | Sub Eng

Нові коментарі

Нова тема   Відповісти
Автор Повідомлення
Anonymous 







2018-09-06 07:33  
Подвійна ставка / Hard Eight / Sydney (1996) 1080p Ukr/Eng | Sub Eng

Подвійна ставка / Hard Eight / Sydney (1996) 1080p Ukr/Eng | Sub Eng


Жанр: трилер, драма, кримінальний
Країна: США



Кінокомпанія: Green Parrot, Rysher Entertainment, Rysher Entertainment
Режисер: Пол Томас Андерсон
Актори: Філіп Бейкер Холл, Джон Сі Райлі, Гвінет Пелтроу, Семюел Л. Джексон, Ф. Вільям Паркер, Філіп Сеймур Гоффман, Натаніель Купер, Вінн Вайт, Роберт Ріджлі, Кетлін Кемпбелл

Сюжет:
Джон сидів біля входу до шинку й мріяв про чашку кави: сьогодні він втратив усі свої гроші. Щедрий пан на ім'я Сідней, що проходив повз нього, пригостив бідолаху сніданком, а за бесідою повідав, як можна заробити великі гроші, граючи в казино.
Під його вмілим керуванням Джон перетворився на першокласного гравця, і разом солодка парочка почала збирати «золотий урожай» по всій країні. Все йшло добре до тих пір, поки Джон не закохався в офіціантку на ім'я Клементина...


Тривалість: 01:41:51
Якість: 1080p
Відео:
кодек:
розмір кадру: 1920х1080
бітрейт: 12,1 Мб/с

Аудіо # 1:
мова: українська
переклад: багатоголосий закадровий
кодек: 2.0
бітрейт: 192 кб/с

Аудіо # 2:
мова: англійська
переклад: оригінал
кодек: E- 2.0
бітрейт: 224 кб/с

Субтитри:
мова: англійська
тип: програмні (м'які)
формат: *.srt
Info
General
Unique ID : 241637131713652685216404055519560347764 (0xB5C99E675697DBA7A768BC0D936E3074)
Format :
Format version : Version 4 / Version 2
File size : 9.11 GiB
Duration : 1 h 41 min
Overall bit rate mode : Variable
Overall bit rate : 12.8 Mb/s
Encoded date : UTC 2018-09-06 05:25:52
Writing application : v6.1.0 ('Old Devil') built on Mar 4 2013 09:10:42
Writing library : libebml v1.3.0 + v1.4.0

Video
ID : 1
Format : AVC
Format/Info : Advanced Video Codec
Format profile : [email protected]
Format settings : CABAC / 4 Ref Frames
Format settings, CABAC : Yes
Format settings, ReFrames : 4 frames
Codec ID : V_MPEG4/ISO/AVC
Duration : 1 h 41 min
Bit rate mode : Variable
Bit rate : 12.1 Mb/s
Maximum bit rate : 15.0 Mb/s
Width : 1 920 pixels
Height : 1 080 pixels
Display aspect ratio : 16:9
Frame rate mode : Constant
Frame rate : 23.976 (24000/1001) FPS
Color space : YUV
Chroma subsampling : 4:2:0
Bit depth : 8 bits
Scan type : Progressive
Bits/(Pixel*Frame) : 0.244
Stream size : 8.63 GiB (95%)
Writing library : core 148 r2623 d5b2374
Encoding settings : cabac=1 / ref=4 / deblock=1:-1:-1 / analyse=0x3:0x133 / me=umh / subme=9 / psy=1 / psy_rd=1.00:0.15 / mixed_ref=1 / me_range=24 / chroma_me=1 / trellis=2 / 8x8dct=1 / cqm=0 / deadzone=21,11 / fast_pskip=1 / chroma_qp_offset=-3 / threads=34 / lookahead_threads=5 / sliced_threads=0 / nr=150 / decimate=1 / interlaced=0 / bluray_compat=0 / constrained_intra=0 / bframes=8 / b_pyramid=2 / b_adapt=2 / b_bias=0 / direct=3 / weightb=1 / open_gop=0 / weightp=2 / keyint=120 / keyint_min=61 / scenecut=0 / intra_refresh=0 / rc_lookahead=120 / rc=crf / mbtree=1 / crf=18.0 / qcomp=0.60 / qpmin=0 / qpmax=69 / qpstep=4 / vbv_maxrate=15000 / vbv_bufsize=31250 / crf_max=0.0 / nal_hrd=vbr / filler=0 / ip_ratio=1.40 / aq=3:1.00
Language : English
Default : Yes
Forced : No
Color range : Limited
Color primaries : BT.709
Transfer characteristics : BT.709
Matrix coefficients : BT.709
Statistics Tags Issue : v22.0.0 ('At The End Of The World') 64-bit 2018-08-24 06:33:32 / v6.1.0 ('Old Devil') built on Mar 4 2013 09:10:42 2018-09-06 05:25:52
FromStats_BitRate : 12387619
FromStats_Duration : 01:41:50.855000000
FromStats_FrameCount : 146514
FromStats_StreamSize : 9462368507

Audio #1
ID : 2
Format : AC-3
Format/Info : Audio Coding 3
Codec ID : A_AC3
Duration : 1 h 41 min
Bit rate mode : Constant
Bit rate : 192 kb/s
Channel(s) : 2 channels
Channel positions : Front: L R
Sampling rate : 48.0 kHz
Frame rate : 31.250 FPS (1536 SPF)
Bit depth : 16 bits
Compression mode : Lossy
Stream size : 140 MiB (1%)
Title : UKR (Inter)
Language : Ukrainian
Service kind : Complete Main
Default : Yes
Forced : Yes

Audio #2
ID : 3
Format : E-AC-3
Format/Info : Enhanced Audio Coding 3
Codec ID : A_EAC3
Duration : 1 h 41 min
Bit rate mode : Constant
Bit rate : 224 kb/s
Channel(s) : 2 channels
Channel positions : Front: L R
Sampling rate : 48.0 kHz
Frame rate : 187.500 FPS (256 SPF)
Compression mode : Lossy
Stream size : 163 MiB (2%)
Title : Original
Language : English
Service kind : Complete Main
Default : No
Forced : No
Statistics Tags Issue : v22.0.0 ('At The End Of The World') 64-bit 2018-08-24 06:33:32 / v6.1.0 ('Old Devil') built on Mar 4 2013 09:10:42 2018-09-06 05:25:52
FromStats_BitRate : 224000
FromStats_Duration : 01:41:50.816000000
FromStats_FrameCount : 190963
FromStats_StreamSize : 171102848

Text
ID : 4
Format : UTF-8
Codec ID : S_TEXT/UTF8
Codec ID/Info : UTF-8 Plain Text
Title : Original (SDH)
Language : English
Default : No
Forced : No
Statistics Tags Issue : v22.0.0 ('At The End Of The World') 64-bit 2018-08-24 06:33:32 / v6.1.0 ('Old Devil') built on Mar 4 2013 09:10:42 2018-09-06 05:25:52
FromStats_BitRate : 62
FromStats_Duration : 01:32:27.408000000
FromStats_FrameCount : 1486
FromStats_StreamSize : 42999

Menu
00:00:00.000 : en:Chapter 1
00:01:43.092 : en:Chapter 2
00:06:48.647 : en:Chapter 3
00:08:47.349 : en:Chapter 4
00:12:00.083 : en:Chapter 5
00:15:30.085 : en:Chapter 6
00:18:18.378 : en:Chapter 7
00:21:51.466 : en:Chapter 8
00:24:14.984 : en:Chapter 9
00:29:17.578 : en:Chapter 10
00:32:05.663 : en:Chapter 11
00:35:23.777 : en:Chapter 12
00:43:13.955 : en:Chapter 13
00:47:29.252 : en:Chapter 14
00:57:11.792 : en:Chapter 15
01:05:02.346 : en:Chapter 16
01:09:49.675 : en:Chapter 17
01:11:54.299 : en:Chapter 18
01:15:40.525 : en:Chapter 19
01:18:24.522 : en:Chapter 20
01:20:11.963 : en:Chapter 21
01:24:05.071 : en:Chapter 22
01:26:43.104 : en:Chapter 23
01:31:08.911 : en:Chapter 24
01:34:04.628 : en:Chapter 25
01:36:25.519 : en:Chapter 26
01:37:33.337 : en:Chapter 27
Скріншоти







За українську доріжку подяка п. Romario_O
Особиста подяка пану denixx за надану матеріальну допомогу на підтримку цього і майбутніх релізів.
Джерело:


Срібний реліз (на рейтинг впливає 50% завантаженого)
 Трекер:    Зареєстрований   

Завантажити / скачати фільм українською



відео для новачків



 Зареєстрований:   2018-09-06 07:33
 Розмір:   9.11 GB 
 Оцінка фільму:   -/10 (Голосів: 0)
   
Інші релізи
+380954897458 
Свій


З нами з: 02.06.17
Востаннє: 16.12.18
Повідомлень: 103

2018-09-06 19:01  
Цей фільм колись Володимир Войтенко показував у "Аргумент-кіно". Цікаво було б передивитися.
Ваш часовий пояс: GMT + 2 Години

Нова тема   Відповісти