Машина Часу / The Time Machine (2002) 1080p Ukr/Eng | Sub Eng

Нові коментарі

Нова тема   Відповісти
Автор Повідомлення
Anonymous 







2018-09-06 07:52  
Машина Часу / The Time Machine (2002) 1080p Ukr/Eng | Sub Eng

Машина Часу / The Time Machine (2002) 1080p Ukr/Eng | Sub Eng


Жанр: пригодницький, фантастика, бойовик
Країна: США



Кінокомпанія: Warner Bros. Pictures
Режисер: Саймон Веллс / Simon Wells
Актори: Гай Пірс, Марк Едді, Філліда Ло, Лаура Кірк, Джош Стемберг, John W. Momrow, Сієнна Гіллорі, Макс Бейкер, Джеффрі М. Мейер, Алан Янг

Сюжет:
Професор Олександр Хартдеген винайшов машину часу. Винайшов не тому, що він геній-учений, а для того що б відправитися в минуле і врятувати свою наречену від випадкової кулі. Але її смерті запобігти не вдалося - минуле не можна змінити. У пошуках відповіді на питання «чому?» Хартдеген вирушає на двісті років в майбутнє, і застає Землю в жахливому стані.
Отримавши поранення і впавши у безпам'ятство він і не помітив, як його машина пройшла крізь вісімсот тисяч років історії планети Земля. Людство змінилося, століття технократії канули в Лету, люди стали схожими на добрих папуасів, які живуть у будинках-люльках, підвішених до скель.
Але у такої пасторальної картини є і темна сторона. Частина людства еволюціонувало в морлоків - чудовиськ, які живуть під землею в печерах, і пожирають тих, хто живе на поверхні.


Тривалість: 01:35:45
Якість: 1080p
Відео:
кодек:
розмір кадру: 1920х792
бітрейт: 7720 кб/с

Аудіо # 1:
мова: українська
переклад: двоголосий закадровий ,
кодек: 2.0
бітрейт: 192 кб/с

Аудіо # 2:
мова: англійська
переклад: оригінал
кодек: 5.1
бітрейт: 448 кб/с

Субтитри:
мова: англійська
тип: програмні (м'які)
формат: *.srt
Info
General
Unique ID : 228037688361088142381455606595235389797 (0xAB8E76143D9551B5AD4770BAEEE8A165)
Format :
Format version : Version 4 / Version 2
File size : 5.59 GiB
Duration : 1 h 35 min
Overall bit rate : 8 358 kb/s
Encoded date : UTC 2018-09-06 04:41:50
Writing application : v6.1.0 ('Old Devil') built on Mar 4 2013 09:10:42
Writing library : libebml v1.3.0 + v1.4.0

Video
ID : 1
Format : AVC
Format/Info : Advanced Video Codec
Format profile : [email protected]
Format settings : CABAC / 5 Ref Frames
Format settings, CABAC : Yes
Format settings, ReFrames : 5 frames
Codec ID : V_MPEG4/ISO/AVC
Duration : 1 h 35 min
Bit rate : 7 720 kb/s
Width : 1 920 pixels
Height : 792 pixels
Display aspect ratio : 2.40:1
Frame rate mode : Constant
Frame rate : 23.976 (24000/1001) FPS
Color space : YUV
Chroma subsampling : 4:2:0
Bit depth : 8 bits
Scan type : Progressive
Bits/(Pixel*Frame) : 0.212
Stream size : 5.05 GiB (90%)
Writing library : core 142 r2409 d6b4e63
Encoding settings : cabac=1 / ref=5 / deblock=1:-3:-3 / analyse=0x3:0x133 / me=umh / subme=11 / psy=1 / psy_rd=1.00:0.00 / mixed_ref=1 / me_range=32 / chroma_me=1 / trellis=2 / 8x8dct=1 / cqm=0 / deadzone=21,11 / fast_pskip=0 / chroma_qp_offset=-2 / threads=12 / lookahead_threads=2 / sliced_threads=0 / nr=0 / decimate=1 / interlaced=0 / bluray_compat=0 / constrained_intra=0 / bframes=9 / b_pyramid=2 / b_adapt=2 / b_bias=0 / direct=3 / weightb=1 / open_gop=0 / weightp=2 / keyint=240 / keyint_min=23 / scenecut=40 / intra_refresh=0 / rc=2pass / mbtree=0 / bitrate=7720 / ratetol=1.0 / qcomp=0.60 / qpmin=0 / qpmax=69 / qpstep=4 / cplxblur=20.0 / qblur=0.5 / ip_ratio=1.40 / pb_ratio=1.30 / aq=1:1.00
Language : English
Default : Yes
Forced : No

Audio #1
ID : 2
Format : AC-3
Format/Info : Audio Coding 3
Codec ID : A_AC3
Duration : 1 h 35 min
Bit rate mode : Constant
Bit rate : 192 kb/s
Channel(s) : 2 channels
Channel positions : Front: L R
Sampling rate : 48.0 kHz
Frame rate : 31.250 FPS (1536 SPF)
Bit depth : 16 bits
Compression mode : Lossy
Delay relative to video : 29 ms
Stream size : 131 MiB (2%)
Title : UKR (Новий, ICTV)
Language : Ukrainian
Service kind : Complete Main
Default : Yes
Forced : Yes

Audio #2
ID : 3
Format : AC-3
Format/Info : Audio Coding 3
Codec ID : A_AC3
Duration : 1 h 35 min
Bit rate mode : Constant
Bit rate : 448 kb/s
Channel(s) : 6 channels
Channel positions : Front: L C R, Side: L R, LFE
Sampling rate : 48.0 kHz
Frame rate : 31.250 FPS (1536 SPF)
Bit depth : 16 bits
Compression mode : Lossy
Stream size : 307 MiB (5%)
Title : Eng
Language : English
Service kind : Complete Main
Default : No
Forced : No

Text
ID : 4
Format : UTF-8
Codec ID : S_TEXT/UTF8
Codec ID/Info : UTF-8 Plain Text
Title : Eng
Language : English
Default : No
Forced : No

Menu
00:00:00.000 : :Chapter 01
00:03:33.118 : :Chapter 02
00:07:26.201 : :Chapter 03
00:12:00.119 : :Chapter 04
00:18:13.644 : :Chapter 05
00:24:55.308 : :Chapter 06
00:30:07.587 : :Chapter 07
00:36:20.175 : :Chapter 08
00:46:07.054 : :Chapter 09
00:53:21.902 : :Chapter 10
01:01:23.780 : :Chapter 11
01:08:10.210 : :Chapter 12
01:17:32.881 : :Chapter 13
01:22:34.109 : :Chapter 14
01:26:24.533 : :Chapter 15
01:29:53.341 : :Chapter 16
01:35:39.988 : :Chapter 17
Скріншоти










За українську доріжку подяка п.: karvai0, xSlim, Merdiff, abodnya
За постер подяка п. thefir
Особиста подяка пану denixx за надану матеріальну допомогу на підтримку цього і майбутніх релізів.

Джерело:


Срібний реліз (на рейтинг впливає 50% завантаженого)
 Трекер:    Зареєстрований   

Завантажити / скачати фільм українською



відео для новачків



 Зареєстрований:   2018-09-06 07:52
 Розмір:   5.59 GB 
 Оцінка фільму:   9.6/10 (Голосів: 9)
   
Інші релізи
Ваш часовий пояс: GMT + 2 Години

Нова тема   Відповісти