Вбиваючи Єву (Сезон 1) / Killing Eve (Season 1) (2018) 720р

Нові коментарі

Нова тема   Відповісти
Автор Повідомлення
dragheart 
Свій


З нами з: 27.01.16
Востаннє: 22.08.19
Повідомлень: 66

2018-09-05 22:36  
Вбиваючи Єву (Сезон 1) / Killing Eve (Season 1) (2018) 720р

Вбиваючи Єву (Сезон 1) / Killing Eve (Season 1) (2018) 720р
Оригінальний постер:



Жанр: трилер, драма
Країна: Велика Британія



Кінокомпанія / телеканал: Panorama Films, Sid Gentle Films
Режисер: Джон Іст, Деймон Томас, Гаррі Бредбір
Актори/ролі озвучують: Сандра О, Джоді Комер, Фіона Шоу, Кім Бодніа, Шон Делані, Кірбі Гауелл-Баптісте

Сюжет:
Захопливий драматичний трилер від телеканалу ВВС America знятий за серією новел Люка Дженнінгса «Кодове ім'я Вілланель».
В центрі сюжету – історія протистояння холоднокровної жінки-кілера на прізвисько Вілланель та спокійної й талановитої співробітниці Mi-5 на ім’я Єва Поластрі.


Тривалість: 1 серія: 43:00 (цілком серій: 8)
Перелік серій
e01. Nice Face
e02. I'll Deal with Him Later
e03. Don't I Know You?
e04. Sorry Baby
e05. I Have a Thing About Bathrooms
e06. Take Me to the Hole!
e07. I Don't Want to Be Free
e08. God, I'm Tired
Якість: 720p
Відео:
кодек:
розмір кадру: 1280 х 720
бітрейт: ~ 2 900 кб/с

Аудіо:
мова: українська
переклад: двоголосий закадровий
кодек: 2.0
бітрейт: 192 кб/с

Джерело озвучення:
DubLiCat
Сторінка на FaceBook


Посилання на ТРЕЙЛЕР
Info
General
Unique ID : 98395688369278705741171091215805785208 (0x4A0651FCBFD4C7D36BDD5E6CBF5F2478)
Complete name : F:\Проект\Готовые проекты\Killing.Eve.s01..720p.Ukr\Killing.Eve.s01e01..720p.Ukr.
Format :
Format version : Version 4 / Version 2
File size : 975 MiB
Duration : 43mn 57s
Overall bit rate : 3 101 Kbps
Encoded date : UTC 2018-07-31 20:17:15
Writing application : v23.0.0 ('The Bride Said No') 64-bit
Writing library : libebml v1.3.6 + v1.4.9
DURATION : 00:43:57.696000000
NUMBER_OF_FRAMES : 82428
NUMBER_OF_BYTES : 63304704
_STATISTICS_WRITING_APP : v23.0.0 ('The Bride Said No') 64-bit
_STATISTICS_WRITING_DATE_UTC : 2018-07-31 20:17:15
_STATISTICS_TAGS : BPS DURATION NUMBER_OF_FRAMES NUMBER_OF_BYTES

Video
ID : 1
Format : AVC
Format/Info : Advanced Video Codec
Format profile : [email protected]
Format settings, CABAC : Yes
Format settings, ReFrames : 1 frame
Codec ID : V_MPEG4/ISO/AVC
Duration : 43mn 57s
Bit rate : 2 935 Kbps
Width : 1 280 pixels
Height : 720 pixels
Display aspect ratio : 16:9
Frame rate mode : Variable
Frame rate : 23.976 fps
Color space : YUV
Chroma subsampling : 4:2:0
Bit depth : 8 bits
Scan type : Progressive
Bits/(Pixel*Frame) : 0.133
Stream size : 895 MiB (92%)
Writing library : core 129
Encoding settings : cabac=1 / ref=1 / deblock=1:0:0 / analyse=0x1:0x131 / me=dia / subme=2 / psy=1 / psy_rd=1.00:0.00 / mixed_ref=0 / me_range=16 / chroma_me=1 / trellis=0 / 8x8dct=0 / cqm=0 / deadzone=21,11 / fast_pskip=1 / chroma_qp_offset=0 / threads=4 / lookahead_threads=1 / sliced_threads=0 / nr=0 / decimate=1 / interlaced=0 / bluray_compat=0 / constrained_intra=0 / bframes=0 / weightp=2 / keyint=250 / keyint_min=25 / scenecut=40 / intra_refresh=0 / rc_lookahead=40 / rc=abr / mbtree=1 / bitrate=2935 / ratetol=1.0 / qcomp=0.60 / qpmin=10 / qpmax=51 / qpstep=4 / ip_ratio=1.41 / aq=1:1.00
Default : Yes
Forced : No

Audio
ID : 2
Format : AC-3
Format/Info : Audio Coding 3
Mode extension : CM (complete main)
Codec ID : A_AC3
Duration : 43mn 57s
Bit rate mode : Constant
Bit rate : 192 Kbps
Channel(s) : 2 channels
Channel positions : Front: L R
Sampling rate : 48.0 KHz
Bit depth : 16 bits
Compression mode : Lossy
Stream size : 60.4 MiB (6%)
Language : Ukrainian
Default : Yes
Forced : No
Скріншоти


Джерело:
Особиста оцінка: 10 - без зайвих вагань рекомендую всім!


Авторський реліз (завантажувати можна без реєстрації)
 Трекер:    Зареєстрований   

Завантажити / скачати серіал українською



відео для новачків



 Зареєстрований:   2018-09-05 22:36
 Розмір:   7.45 GB 
 Оцінка серіалу:   9.5/10 (Голосів: 37)
   
=HomeAlone= 
Частий відвідувач


З нами з: 04.01.11
Востаннє: 28.06.19
Повідомлень: 35

2018-09-06 09:38  
На третьому скріншоті актор зі шведського Мосту?
dragheart 
Свій


З нами з: 27.01.16
Востаннє: 22.08.19
Повідомлень: 66

2018-09-06 13:01  
Так, там він також знімався.
11FrYkT 
Модератор відео


З нами з: 20.02.11
Востаннє: 23.08.19
Повідомлень: 6143

2018-09-07 11:25  
dragheart , додайте звіт Медіаінфо
Neytreenor 
Відео Гуртом - запис з ТБ
Відео Гуртом - запис з ТБ


З нами з: 03.04.11
Востаннє: 24.08.19
Повідомлень: 2024

2018-09-08 18:51  
Є українізований постер: https://s4.vcdn.biz/static/f/1361746201/image.jpg
igor_koz 
Новенький


З нами з: 08.04.11
Востаннє: 23.08.19
Повідомлень: 12

2018-09-09 13:12  
дурня якась..
havryk 
VIP


З нами з: 29.06.10
Востаннє: 24.08.19
Повідомлень: 820

2018-09-09 13:42  
Перенесіть в розділ HD
Neytreenor 
Відео Гуртом - запис з ТБ
Відео Гуртом - запис з ТБ


З нами з: 03.04.11
Востаннє: 24.08.19
Повідомлень: 2024

2018-09-09 13:57  
dragheart написано:
Якість:

Треба змінити на , як усюди.

dragheart написано:
Джерело озвучення:

У команди озвучення є назва, треба її вказати Happy.

dragheart 
Свій


З нами з: 27.01.16
Востаннє: 22.08.19
Повідомлень: 66

2018-09-10 13:01  
Дякую за підказки))
chokur 
Новенький


З нами з: 03.07.17
Востаннє: 19.08.19
Повідомлень: 2

2018-09-12 16:01  
Для тих, хто вагається дивитися чи ні.
Сюжет - це протистояння між агентом МІ 5 чи 6 (не знаю) та жінкою-кілером. Все це на фоні боротьби англійської та російської (без них нікуди) розвідок. Є екшн, гумор та інше.
Зробили якісно, хоч і фрагменти з росіянами мають кліше (горілка, зима, ведмеді....).
До перегляду.
Ще плюс - це швидкий український переклад нових серіалів. Не всі заслуговують на таку увагу.

tsyka 
Частий відвідувач


З нами з: 12.02.16
Востаннє: 24.08.19
Повідомлень: 37

2018-09-12 23:16  
чудовий серіал
bot 
робот


З нами з: 30.09.07
Востаннє: 26.05.05
Повідомлень: 21799

2018-09-13 11:24  
Тему перенесено з Телесеріали до форуму Серіали в HD


igor911

Pavlo_Nazar 
Новенький


З нами з: 21.12.13
Востаннє: 19.08.19
Повідомлень: 5

2018-09-14 18:37  
Крутезний серіал ! Це один з тих випадків, коли просто не можу дібрати слів ....
mazafakavdv 
Новенький


З нами з: 01.07.17
Востаннє: 22.08.19
Повідомлень: 3

2018-10-18 22:28  
багато абсурдних моментів, які нервують. Нервує, як герої плужать. За переклад подяка
AlbertTol 
Новенький


З нами з: 12.11.17
Востаннє: 17.08.19
Повідомлень: 22

2018-10-21 15:40  
DubLiCat, caucasian це європейський а не кавказькій, <рукаобличчя>
zaika 
VIP


З нами з: 01.07.12
Востаннє: 24.08.19
Повідомлень: 1206

2018-11-16 09:42  
Фільм, мало того що англійський, він псевдосюреалістичний. Особливо остання серія. Більшого абсурду неможливо придумати. Оці "пригоди" англійських розвідників на московаії тому підтверження. Оцінка фільму - 1/10.
0mage0 
VIP


З нами з: 06.10.15
Востаннє: 24.08.19
Повідомлень: 481

2019-08-22 09:34  
Будь ласка, виправте в описі сюжету "захоплюючий" на захопливий.
Ваш часовий пояс: GMT + 2 Години

Нова тема   Відповісти