Монстри на канікулах 3 / Hotel Transylvania 3: Summer Vacation (2018) 1080p Ukr/Eng | Sub Ukr/Eng

Нові коментарі

Нова тема   Відповісти
Автор Повідомлення
staf777 
Попереджень: 1
Попереджень: 1 


З нами з: 16.11.16
Востаннє: 16.11.18
Повідомлень: 1746

2018-09-05 20:00  
Монстри на канікулах 3 / Hotel Transylvania 3: Summer Vacation (2018) 1080p Ukr/Eng | Sub Ukr/Eng



Альтернативний постер

«З монстрами відпочивати - лише кров псувати»



Жанр: комедія, мультфільм, сімейний, фентезі
Країна: США



Кінокомпанія: Columbia Pictures Corporation,Media Rights Capital (MRC),Sony Pictures Animation
Режисер: Дженнді Тартаковські
Актори: Мел Брукс, Адам Сендлер, Селена Гомес, Енді Семберг, Кетрін Ган, Френ Дрешер, Стів Бушемі, Девід Спейд, Тара Стронг, Кіген-Майкл Кі

Сюжет:
Дракула разом з Мевіс, Джонні, Деннісом і своїми друзями відправляється в шикарний круїз на лайнері для монстрів. На його борту вампір зустрічає загадкового капітана Еріку, в яку тут же закохується, не підозрюючи, що вона є нащадком самого Абрахама Ван Хельсинга, давнього ворога Дракули та всіх монстрів.


Тривалість: 01:37:19
Якість: 1080p

Відео:
кодек:
розмір кадру: 1920x1036
бітрейт: 9742 кб/с

Аудіо # 1:
мова: українська
переклад: професійний дубльований
кодек: 5.1
бітрейт: 640 кб/с

Аудіо # 2:
мова: англійська
переклад: оригінал
кодек: 5.1
бітрейт: 1509 кб/с

Субтитри:
мова: українська
тип: програмні (м'які)
формат: *.srt

Субтитри:
мова: англійська
тип: програмні (м'які)
формат: *.srt
Info
Код:
General
Unique ID                   : 107462192612766437776334214531475333760 (0x50D87728AA2796685F8EC9BF479C6280)
Complete name               : S:\Мультфільми в HD\Hotel Transylvania 3 Summer Vacation (2018) 1080p [UKR_ENG] [Hurtom].
Format                      :
Format version              : Version 4 / Version 2
File size                   : 8.09 GiB
Duration                    : 1 h 37 min
Overall bit rate            : 11.9 Mb/s
Movie name                  : Hotel Transylvania 3 Summer Vacation (2018) 1080p [UKR_ENG] [Hurtom]
Encoded date                : UTC 2018-11-10 20:35:42
Writing application         : v24.0.0 ('Beyond The Pale') 64-bit
Writing library             : libebml v1.3.6 + v1.4.9
Cover                       : Yes
Attachments                 : cover.jpg

Video
ID                          : 1
Format                      : AVC
Format/Info                 : Advanced Video Codec
Format profile              : [email protected]
Format settings             : CABAC / 4 Ref Frames
Format settings, CABAC      : Yes
Format settings, ReFrames   : 4 frames
Codec ID                    : V_MPEG4/ISO/AVC
Duration                    : 1 h 37 min
Bit rate                    : 9 742 kb/s
Width                       : 1 920 pixels
Height                      : 1 036 pixels
Display aspect ratio        : 1.85:1
Frame rate mode             : Constant
Frame rate                  : 23.976 (24000/1001) FPS
Color space                 : YUV
Chroma subsampling          : 4:2:0
Bit depth                   : 8 bits
Scan type                   : Progressive
Bits/(Pixel*Frame)          : 0.204
Stream size                 : 6.63 GiB (82%)
Title                       : [email protected]
Writing library             : core 152 r2851+45 9658d1a 7mod [[email protected] X86_64]
Encoding settings           : cabac=1 / ref=4 / deblock=1:-3:-3 / analyse=0x3:0x113 / me=umh / subme=11 / psy=1 / fade_compensate=0.00 / psy_rd=1.00:0.05 / mixed_ref=1 / me_range=32 / chroma_me=1 / trellis=2 / 8x8dct=1 / cqm=0 / deadzone=21,11 / fast_pskip=0 / chroma_qp_offset=-2 / threads=64 / lookahead_threads=8 / sliced_threads=0 / nr=0 / decimate=1 / interlaced=0 / bluray_compat=0 / constrained_intra=0 / fgo=0 / bframes=8 / b_pyramid=2 / b_adapt=2 / b_bias=0 / direct=3 / weightb=1 / open_gop=0 / weightp=2 / keyint=250 / keyint_min=23 / scenecut=40 / intra_refresh=0 / rc_lookahead=40 / rc=crf / mbtree=0 / crf=16.9000 / qcomp=0.60 / qpmin=0:0:0 / qpmax=69:69:69 / qpstep=4 / vbv_maxrate=50000 / vbv_bufsize=40000 / crf_max=0.0 / nal_hrd=none / filler=0 / ip_ratio=1.40 / pb_ratio=1.30 / aq=4:0.90 / aq-sensitivity=10.00 / aq-factor=1.00:1.00:1.00 / aq2=0 / aq3=0
Default                     : Yes
Forced                      : No

Audio #1
ID                          : 2
Format                      : AC-3
Format/Info                 : Audio Coding 3
Codec ID                    : A_AC3
Duration                    : 1 h 37 min
Bit rate mode               : Constant
Bit rate                    : 640 kb/s
Channel(s)                  : 6 channels
Channel positions           : Front: L C R, Side: L R, LFE
Sampling rate               : 48.0 kHz
Frame rate                  : 31.250 FPS (1536 SPF)
Bit depth                   : 16 bits
Compression mode            : Lossy
Stream size                 : 446 MiB (5%)
Language                    : Ukrainian
Service kind                : Complete Main
Default                     : Yes
Forced                      : Yes

Audio #2
ID                          : 3
Format                      :
Format/Info                 : Digital Theater Systems
Codec ID                    : A_DTS
Duration                    : 1 h 37 min
Bit rate mode               : Constant
Bit rate                    : 1 509 kb/s
Channel(s)                  : 6 channels
Channel positions           : Front: L C R, Side: L R, LFE
Sampling rate               : 48.0 kHz
Frame rate                  : 93.750 FPS (512 SPF)
Bit depth                   : 24 bits
Compression mode            : Lossy
Stream size                 : 1.03 GiB (13%)
Title                       : Original
Language                    : English
Default                     : No
Forced                      : No

Text #1
ID                          : 4
Format                      : UTF-8
Codec ID                    : S_TEXT/UTF8
Codec ID/Info               : UTF-8 Plain Text
Duration                    : 1 h 36 min
Bit rate                    : 71 b/s
Count of elements           : 1118
Stream size                 : 50.4 KiB (0%)
Title                       : Full
Language                    : Ukrainian
Default                     : No
Forced                      : No

Text #2
ID                          : 5
Format                      : UTF-8
Codec ID                    : S_TEXT/UTF8
Codec ID/Info               : UTF-8 Plain Text
Duration                    : 1 h 26 min
Bit rate                    : 47 b/s
Count of elements           : 1098
Stream size                 : 30.1 KiB (0%)
Title                       : Full
Language                    : English
Default                     : No
Forced                      : No

Menu
00:00:00.000                : en:00:00:00.000
00:04:28.935                : en:00:04:28.935
00:09:34.824                : en:00:09:34.824
00:16:02.044                : en:00:16:02.044
00:20:03.077                : en:00:20:03.077
00:24:34.932                : en:00:24:34.932
00:31:12.537                : en:00:31:12.537
00:36:49.207                : en:00:36:49.207
00:44:04.725                : en:00:44:04.725
00:49:57.703                : en:00:49:57.703
00:54:49.745                : en:00:54:49.745
01:00:34.881                : en:01:00:34.881
01:06:12.010                : en:01:06:12.010
01:10:32.270                : en:01:10:32.270
01:13:46.380                : en:01:13:46.380
01:24:56.550                : en:01:24:56.550






Джерело: & &
Особиста оцінка: 0 - не дивився
Дякую igor911 за допомогу

Монстри на канікулах 3 / Hotel Transylvania 3: Summer Vacation (2018) 1080p Ukr/Eng | Sub Ukr/Eng Монстри на канікулах 3 / Hotel Transylvania 3: Summer Vacation (2018) 1080p Ukr/Eng | Sub Ukr/Eng


Золотий реліз (завантажене не впливає на рейтинг)
 Трекер:    Зареєстрований   

Завантажити / скачати мультфільм українською



відео для новачків



 Зареєстрований:   2018-11-10 23:04
 Розмір:   8.09 GB 
 Оцінка мультфільму:   9.6/10 (Голосів: 82)
   
Igor_kachynskyy 
Новенький


З нами з: 03.01.18
Востаннє: 13.11.18
Повідомлень: 10

2018-09-09 09:02  
Так швидко?
igor911 
Відео Гуртом
Відео Гуртом


З нами з: 18.01.08
Востаннє: 16.11.18
Повідомлень: 11402

2018-09-09 09:09  
Igor_kachynskyy написано:
Так швидко?

не дуже, реліз не раніше 25.09, коли з'явиться ліц.укр.звук

4elloveck 
Новенький


З нами з: 06.01.13
Востаннє: 17.09.18
Повідомлень: 1

2018-09-15 09:23  
Чекаємо....
alonzo 
Поважний учасник


З нами з: 30.08.15
Востаннє: 15.11.18
Повідомлень: 176

2018-09-15 13:15  
хто б сказав коли можуть з"явитись ось ці мульти у нас : - http://www.movienewsletters.net/photos/UKR_250412R1.jpg - https://www.youtube.com/watch?v=aqthIAHCaVI ; https://www.youtube.com/watch?v=2qheGLOnIqI
bot 
робот


З нами з: 30.09.07
Востаннє: 26.05.05
Повідомлень: 20144

2018-09-24 22:20  
Тему перенесено з Анонси релізів до форуму Мультфільми в HD


staf777

specter85 
Новенький


З нами з: 27.09.10
Востаннє: 16.11.18
Повідомлень: 18

2018-09-25 16:32  
Дякую, дуже чекав на продовження.
freshtorg 
Новенький


З нами з: 19.01.16
Востаннє: 06.11.18
Повідомлень: 2

2018-09-25 17:26  
Дякую. Супер мультик. Малеча не натішиться....
sigsauer888 
Новенький


З нами з: 18.11.14
Востаннє: 28.09.18
Повідомлень: 2

2018-09-27 08:06  
Скажіть будь ласка, а звук вже норм? =)
igor911 
Відео Гуртом
Відео Гуртом


З нами з: 18.01.08
Востаннє: 16.11.18
Повідомлень: 11402

2018-09-27 09:03  
Звук ліцензійний, стерео. Є імовірність (50/50), що згодом буде 5.1 з блурея.
sigsauer888 
Новенький


З нами з: 18.11.14
Востаннє: 28.09.18
Повідомлень: 2

2018-09-27 09:45  
igor911
Дуже дякую!

numealand 
Частий відвідувач


З нами з: 19.01.17
Востаннє: 16.11.18
Повідомлень: 44

2018-09-30 20:20  
дякую за класний мульт)
igor911 
Відео Гуртом
Відео Гуртом


З нами з: 18.01.08
Востаннє: 16.11.18
Повідомлень: 11402

2018-09-30 20:25  
реліз оновлено до 'а, "золото" на тиждень.
eevviill 
Свій


З нами з: 13.08.08
Востаннє: 15.11.18
Повідомлень: 86

2018-10-01 19:12  
Не зайшов мульт мені.
6.3

masteroma 
Новенький


З нами з: 30.08.09
Востаннє: 16.11.18
Повідомлень: 9

2018-10-02 17:29  
Буде 1080 H.265? дякую
armogun 
Попереджень: 1
Попереджень: 1 


З нами з: 04.05.13
Востаннє: 16.11.18
Повідомлень: 203

2018-10-02 18:31  
eevviill
І мені не зайшов, 7. Порівняно з 1 і 2 ніяке. реклама Експерії

v_o_i_n 
Новенький


З нами з: 26.04.16
Востаннє: 10.11.18
Повідомлень: 1

2018-10-03 12:00  
Так собі... Найгірша частина з трьох.
staf777 
Попереджень: 1
Попереджень: 1 


З нами з: 16.11.16
Востаннє: 16.11.18
Повідомлень: 1746

2018-11-10 23:08  
10.11.2018 реліз оновлено - український звук зі стерео замінено на 5.1 з 4k UHD 
Ваш часовий пояс: GMT + 2 Години

Нова тема   Відповісти