Офісний розковбас / Office Uprising (2018) 1080p Ukr/Eng

Нові коментарі

Нова тема   Відповісти
Автор Повідомлення
staf777 
Попереджень: 1
Попереджень: 1 


З нами з: 16.11.16
Востаннє: 19.10.18
Повідомлень: 1637

2018-09-05 18:19  
Офісний розковбас / Office Uprising (2018) 1080p Ukr/Eng


Жанр: бойовик, жахи, комедія
Країна: США



Кінокомпанія: Mind the GAP Productions,Lydiard Films,Rumble Riot Pictures
Режисер: Лін Одінг
Актори: Брентон Туейтс, Джейн Леві, Каран Соні, Закарі Левай, Грегг Генрі, Курт Фуллер, Алан Річсон

Сюжет:
Співробітник збройової фабрики несподівано виявляє, що енергетичний напій перетворює його колег на зомбі.


Тривалість: 01:24:59
Якість: 1080p

Відео:
кодек:
розмір кадру: 1920x806
бітрейт: 4541 кб/с

Аудіо # 1:
мова: українська
переклад: професійний дубльований
кодек: 2.0
бітрейт: 192 кб/с

Аудіо # 2:
мова: англійська
переклад: оригінал
кодек: 5.1
бітрейт: 384 кб/с
Info
Код:
General
Unique ID                   : 331932045161162299412614784773457622710 (0xF9B7C959E2157A0320FE67ADF712B6B6)
Complete name               : S:\Фільми в HD\Комедія\Office Uprising (2018) 1080p [UA][ENG][Hurtom].
Format                      :
Format version              : Version 4 / Version 2
File size                   : 3.04 GiB
Duration                    : 1 h 24 min
Overall bit rate            : 5 119 kb/s
Movie name                  : Office Uprising (2018) 1080p [UA][ENG][Hurtom]
Encoded date                : UTC 2018-09-05 15:34:55
Writing application         : v24.0.0 ('Beyond The Pale') 64-bit
Writing library             : libebml v1.3.6 + v1.4.9
Cover                       : Yes
Attachments                 : cover.jpg

Video
ID                          : 1
Format                      : AVC
Format/Info                 : Advanced Video Codec
Format profile              : [email protected]
Format settings             : CABAC / 5 Ref Frames
Format settings, CABAC      : Yes
Format settings, ReFrames   : 5 frames
Codec ID                    : V_MPEG4/ISO/AVC
Duration                    : 1 h 24 min
Bit rate                    : 4 541 kb/s
Width                       : 1 920 pixels
Height                      : 806 pixels
Display aspect ratio        : 2.40:1
Frame rate mode             : Constant
Frame rate                  : 25.000 FPS
Color space                 : YUV
Chroma subsampling          : 4:2:0
Bit depth                   : 8 bits
Scan type                   : Progressive
Bits/(Pixel*Frame)          : 0.117
Stream size                 : 2.70 GiB (89%)
Language                    : English
Default                     : Yes
Forced                      : No
Color range                 : Limited
Color primaries             : BT.709
Transfer characteristics    : BT.709
Matrix coefficients         : BT.709

Audio #1
ID                          : 2
Format                      : AC-3
Format/Info                 : Audio Coding 3
Codec ID                    : A_AC3
Duration                    : 1 h 24 min
Bit rate mode               : Constant
Bit rate                    : 192 kb/s
Channel(s)                  : 2 channels
Channel positions           : Front: L R
Sampling rate               : 48.0 kHz
Frame rate                  : 31.250 FPS (1536 SPF)
Bit depth                   : 16 bits
Compression mode            : Lossy
Stream size                 : 117 MiB (4%)
Language                    : Ukrainian
Service kind                : Complete Main
Default                     : Yes
Forced                      : Yes

Audio #2
ID                          : 3
Format                      : AC-3
Format/Info                 : Audio Coding 3
Codec ID                    : A_AC3
Duration                    : 1 h 24 min
Bit rate mode               : Constant
Bit rate                    : 384 kb/s
Channel(s)                  : 6 channels
Channel positions           : Front: L C R, Side: L R, LFE
Sampling rate               : 48.0 kHz
Frame rate                  : 31.250 FPS (1536 SPF)
Bit depth                   : 16 bits
Compression mode            : Lossy
Stream size                 : 233 MiB (8%)
Language                    : English
Service kind                : Complete Main
Default                     : No
Forced                      : No

Menu
00:00:00.000                : en:Глава 1
00:00:53.280                : en:Глава 2
00:08:07.080                : en:Глава 3
00:19:27.000                : en:Глава 4
00:25:33.520                : en:Глава 5
00:31:18.280                : en:Глава 6
00:36:09.520                : en:Глава 7
00:41:23.760                : en:Глава 8
00:45:16.200                : en:Глава 9
00:50:38.320                : en:Глава 10
00:55:12.400                : en:Глава 11
01:03:01.560                : en:Глава 12
01:06:36.160                : en:Глава 13
01:16:03.800                : en:Глава 14


Підтримати купівлю інших фільмів можна тут.

Подяка пану AngryBirdsUA за доріжку.

Джерело:
Особиста оцінка: 0 - не дивився


 Трекер:    Зареєстрований   

Завантажити / скачати фільм українською



відео для новачків



 Зареєстрований:   2018-09-05 18:47
 Розмір:   3.04 GB 
 Оцінка фільму:   7.3/10 (Голосів: 32)
   
Інші релізи
   Офісний розковбас / Office Uprising (2018) AVC Ukr/Eng 11FrYkT  27 / 0   1.45 GB   2018-09-06 21:46 
   Офісний розковбас / Office Uprising (2018) igor911  69 / 0   1.23 GB   2018-09-05 20:44 
   Офісний розковбас / Office Uprising (2018) 720p Ukr/Eng 11FrYkT  27 / 0   2.72 GB   2018-09-05 18:01 
Panther2214 
Свій


З нами з: 29.09.17
Востаннє: 18.10.18
Повідомлень: 115

2018-09-05 19:39  
Сюжет: збройової фабрики - збройної фабрики, пишемо правильно...
staf777 
Попереджень: 1
Попереджень: 1 


З нами з: 16.11.16
Востаннє: 19.10.18
Повідомлень: 1637

2018-09-05 19:45  
Panther2214 написано:
Сюжет: збройової фабрики - збройної фабрики, пишемо правильно...

Дякую виправив

igor911 
Відео Гуртом
Відео Гуртом


З нами з: 18.01.08
Востаннє: 19.10.18
Повідомлень: 11249

2018-09-05 21:18  
staf777 написано:
Дякую виправив

виправив як було, не всі поради однаково корисні. В даному випадку фабрика збройова, а не збройна. https://toloka.to/t94845#1027885

0mage0 
VIP


З нами з: 06.10.15
Востаннє: 19.10.18
Повідомлень: 368

2018-10-05 11:19  
Смішний фільм. Особливо сподобалась "Зброя масового захисту" Happy
І шкода того чувака, який не був зомбі і був прибитий сокирою Sad (1)

Ваш часовий пояс: GMT + 2 Години

Нова тема   Відповісти