Моллі Мун і чарівний підручник гіпнозу / Molly Moon and the Incredible Book of Hypnotism (2015) 720p Ukr/Eng | Sub Eng/Ger

Нові коментарі

Нова тема   Відповісти
Автор Повідомлення
Anonymous 







2018-09-05 12:08  
Моллі Мун і чарівний підручник гіпнозу / Molly Moon and the Incredible Book of Hypnotism (2015) 720p Ukr/Eng | Sub Eng/Ger

Моллі Мун і чарівний підручник гіпнозу / Molly Moon and the Incredible Book of Hypnotism (2015) 720p Ukr/Eng | Sub Eng/Ger
Оригінальні постери:






Жанр: фентезі, пригодницький, сімейний
Країна: Велика Британія



Кінокомпанія: Amber Entertainment, LipSync Productions, ARC Entertainment, Constantin Film
Режисер: Крістофер Н. Роулі / Christopher N. Rowley
Актори: Реффі Кессіді / Raffey Cassidy, Емілі Вотсон / Emily Watson, Домінік Монаган / Dominic Monaghan, Джоан Коллінз / Joan Collins, Селія Імрі / Celia Imrie, Енн-Мері Дафф / Raffey Cassidy, Седі Фрост / Sadie Frost, Бен Міллер / Ben Miller, Леслі Менвілл / Lesley Manville, Гарі Кемп / Gary Kemp та інші

Сюжет:
Моллі Мун все своє свідоме життя провела в Хардвікскому притулку. Тут її знайшли зовсім маленькою на ґанку. Життя дівчинки в цьому закладі зовсім не схоже на казку: дівчатка з притулку її постійно дражнять і ображають, учителі тільки сварять і говорять, яка вона погана. Але найбільше бід приносить злісна міс Гадкінс, яка керує притулком. Їй просто не подобається Моллі, тому робить її юне життя нестерпним. Одного разу на очі дівчинці попадається дивна книга, яка виявилася підручником з гіпнозу. Тепер Моллі може керувати людьми, і вміло цим користується. Вона тікає з притулку, щоб переїхати в Лондон і знайти свого найкращого друга, а заодно стати всесвітньо популярною. За Моллі постійно полює якийсь чоловік, який хоче заволодіти книгою і отримати здатність керувати людьми. І у нього точно не добрі наміри.

Екранізація першої дитячої книги з серії "Моллі Мун" відомої британської письменниці Джорджії Бінг.

Фільм-переможець фестивалю "Чілдрен Кінофест" (2017, Україна)
Офіційний оригінальний трейлер:


Рейтинг MPAA: PG - рекомендується присутність батьків
Вікова категорія: 6+

Тривалість: 01:37:43
Якість: 720p [Hurtom] - джерело ріпу: Remux 1080p
Відео:
кодек:
розмір кадру: 1280x688
бітрейт: 4224 кб/с

Аудіо # 1:
мова: українська
переклад: багатоголосий закадровий | TV5
кодек: 2.0 [стерео]
бітрейт: 192 кб/с

Аудіо # 2:
мова: англійська
переклад: оригінал
кодек: 5.1
бітрейт: 640 кб/с

Субтитри # 1-2:
мова: англійська (SDH), німецька (SDH)
тип: програмні (м'які)
формат: *.srt

Збережено оригінальні розділи, як на Blu-ray
Info та log
Код:
Complete name               : Molly Moon and the Incredible Book of Hypnotism (2015) [Ukr,Eng sub.Eng,Ger] 720p [Hurtom].
Format                      :
Format version              : Version 4
File size                   : 3.45 GiB
Duration                    : 1 h 37 min
Overall bit rate            : 5 059 kb/s
Movie name                  : Моллі Мун і чарівний підручник гіпнозу / Molly Moon and the Incredible Book of Hypnotism (2015) [Ukr,Eng sub.Eng,Ger] 720p [Hurtom]
Released date               : 2015
Encoded date                : UTC 2018-09-05 11:17:14
Writing application         : v26.0.0 ('In The Game') 64-bit
Writing library             : libebml v1.3.6 + v1.4.9
Cover                       : Yes
Comment                     : https://www.imdb.com/title/tt2445178/
Attachments                 : cover.jpg
DIRECTOR                    : Крістофер Н. Роулі / Christopher N. Rowley
GENRE                       : фентезі, пригодницький, сімейний
SYNOPSIS                    : Моллі Мун все своє свідоме життя провела в Хардвікскому притулку. Тут її знайшли зовсім маленькою на ґанку. Життя дівчинки в цьому закладі зовсім не схоже на казку: дівчатка з притулку її постійно дражнять і ображають, учителі тільки сварять і говорять, яка вона погана. Але найбільше бід приносить злісна міс Гадкінс, яка керує притулком. Їй просто не подобається Моллі, тому робить її юне життя нестерпним. Одного разу на очі дівчинці попадається дивна книга, яка виявилася підручником з гіпнозу. Тепер Моллі може керувати людьми, і вміло цим користується. Вона тікає з притулку, щоб переїхати в Лондон і знайти свого найкращого друга, а заодно стати всесвітньо популярною. За Моллі постійно полює якийсь чоловік, який хоче заволодіти книгою і отримати здатність керувати людьми. І у нього точно не добрі наміри... / Екранізація першої дитячої книги з серії "Моллі Мун" відомої британської письменниці Джорджії Бінг. / Фільм-переможець фестивалю "Чілдрен Кінофест" (2017, Україна)
Url                         : https://toloka.to/t94868

Video
ID                          : 1
Format                      : AVC
Format/Info                 : Advanced Video Codec
Format profile              : [email protected]
Format settings             : CABAC / 9 Ref Frames
Format settings, CABAC      : Yes
Format settings, ReFrames   : 9 frames
Codec ID                    : V_MPEG4/ISO/AVC
Duration                    : 1 h 37 min
Bit rate                    : 4 224 kb/s
Width                       : 1 280 pixels
Height                      : 688 pixels
Display aspect ratio        : 1.85:1
Frame rate mode             : Constant
Frame rate                  : 24.000 FPS
Color space                 : YUV
Chroma subsampling          : 4:2:0
Bit depth                   : 8 bits
Scan type                   : Progressive
Bits/(Pixel*Frame)          : 0.200
Stream size                 : 2.88 GiB (84%)
Title                       : Моллі Мун і чарівний підручник гіпнозу / Molly Moon and the Incredible Book of Hypnotism (2015) 720p [Hurtom]
Writing library             : core 155 r2901 7d0ff22
Encoding settings           : cabac=1 / ref=9 / deblock=1:-1:-1 / analyse=0x3:0x133 / me=umh / subme=10 / psy=1 / psy_rd=1.00:0.15 / mixed_ref=1 / me_range=32 / chroma_me=1 / trellis=2 / 8x8dct=1 / cqm=0 / deadzone=21,11 / fast_pskip=0 / chroma_qp_offset=-3 / threads=12 / lookahead_threads=2 / sliced_threads=0 / nr=0 / decimate=1 / interlaced=0 / bluray_compat=0 / constrained_intra=0 / bframes=8 / b_pyramid=2 / b_adapt=2 / b_bias=0 / direct=3 / weightb=1 / open_gop=0 / weightp=2 / keyint=240 / keyint_min=24 / scenecut=40 / intra_refresh=0 / rc_lookahead=60 / rc=crf / mbtree=0 / crf=17.0 / qcomp=0.60 / qpmin=0 / qpmax=69 / qpstep=4 / vbv_maxrate=62500 / vbv_bufsize=78125 / crf_max=0.0 / nal_hrd=none / filler=0 / ip_ratio=1.40 / pb_ratio=1.30 / aq=3:0.80
Language                    : English
Default                     : Yes
Forced                      : No

Audio #1
ID                          : 2
Format                      : AC-3
Format/Info                 : Audio Coding 3
Commercial name             : Dolby Digital
Codec ID                    : A_AC3
Duration                    : 1 h 37 min
Bit rate mode               : Constant
Bit rate                    : 192 kb/s
Channel(s)                  : 2 channels
Channel layout              : L R
Sampling rate               : 48.0 kHz
Frame rate                  : 31.250 FPS (1536 SPF)
Bit depth                   : 16 bits
Compression mode            : Lossy
Stream size                 : 134 MiB (4%)
Title                       : MVO [TV5], 2.0 [stereo] 192 Kbps
Language                    : Ukrainian
Service kind                : Complete Main
Default                     : Yes
Forced                      : Yes

Audio #2
ID                          : 3
Format                      : AC-3
Format/Info                 : Audio Coding 3
Commercial name             : Dolby Digital
Codec ID                    : A_AC3
Duration                    : 1 h 37 min
Bit rate mode               : Constant
Bit rate                    : 640 kb/s
Channel(s)                  : 6 channels
Channel layout              : L R C LFE Ls Rs
Sampling rate               : 48.0 kHz
Frame rate                  : 31.250 FPS (1536 SPF)
Bit depth                   : 16 bits
Compression mode            : Lossy
Stream size                 : 447 MiB (13%)
Title                       : Original, 5.1 640 Kbps
Language                    : English
Service kind                : Complete Main
Default                     : No
Forced                      : No

Text #1
ID                          : 4
Format                      : UTF-8
Codec ID                    : S_TEXT/UTF8
Codec ID/Info               : UTF-8 Plain Text
Duration                    : 1 h 36 min
Bit rate                    : 62 b/s
Count of elements           : 1754
Stream size                 : 44.2 KiB (0%)
Title                       : Eng SDH
Language                    : English
Default                     : No
Forced                      : No

Text #2
ID                          : 5
Format                      : UTF-8
Codec ID                    : S_TEXT/UTF8
Codec ID/Info               : UTF-8 Plain Text
Duration                    : 1 h 31 min
Bit rate                    : 65 b/s
Count of elements           : 1109
Stream size                 : 43.6 KiB (0%)
Title                       : Ger SDH
Language                    : German
Default                     : No
Forced                      : No

Menu
00:00:00.000                : en:00:00:00.000
00:06:43.458                : en:00:06:43.458
00:12:56.583                : en:00:12:56.583
00:20:20.292                : en:00:20:20.292
00:26:41.125                : en:00:26:41.125
00:32:01.375                : en:00:32:01.375
00:36:52.458                : en:00:36:52.458
00:42:47.125                : en:00:42:47.125
00:49:07.292                : en:00:49:07.292
00:56:26.167                : en:00:56:26.167
01:04:05.917                : en:01:04:05.917
01:11:04.167                : en:01:11:04.167
01:15:25.792                : en:01:15:25.792
01:20:19.208                : en:01:20:19.208
01:25:30.875                : en:01:25:30.875
01:32:04.083                : en:01:32:04.083

Код:
frame I:1747  Avg QP:14.38  size:119394
frame P:30344 Avg QP:15.34  size: 47111
frame B:108629 Avg QP:17.61  size: 13421
consecutive B-frames:  2.5%  2.8%  9.0% 16.1% 14.6% 48.9%  3.8%  0.9%  1.4%
Додаткові скріншоти:
Джерело:
Подяка Krigg070 та drop_plz за українську доріжку.


 Трекер:    Зареєстрований   

Завантажити / скачати фільм українською



відео для новачків



 Зареєстрований:   2018-09-05 14:32
 Розмір:   3.45 GB 
 Оцінка фільму:   7.8/10 (Голосів: 8)
   
Ваш часовий пояс: GMT + 2 Години

Нова тема   Відповісти