Моллі Мун і чарівний підручник гіпнозу / Molly Moon and the Incredible Book of Hypnotism (2015) Remux 1080p Ukr/Eng | Sub Eng/Ger

Нові коментарі

Нова тема   Відповісти
Автор Повідомлення
Anonymous 







2018-09-05 11:59  
Моллі Мун і чарівний підручник гіпнозу / Molly Moon and the Incredible Book of Hypnotism (2015) Remux 1080p Ukr/Eng | Sub Eng/Ger

Моллі Мун і чарівний підручник гіпнозу / Molly Moon and the Incredible Book of Hypnotism (2015) Remux 1080p Ukr/Eng | Sub Eng/Ger
Оригінальні постери:






Жанр: фентезі, пригодницький, сімейний
Країна: Велика Британія



Кінокомпанія: Amber Entertainment, LipSync Productions, ARC Entertainment, Constantin Film
Режисер: Крістофер Н. Роулі / Christopher N. Rowley
Актори: Реффі Кессіді / Raffey Cassidy, Емілі Вотсон / Emily Watson, Домінік Монаган / Dominic Monaghan, Джоан Коллінз / Joan Collins, Селія Імрі / Celia Imrie, Енн-Мері Дафф / Raffey Cassidy, Седі Фрост / Sadie Frost, Бен Міллер / Ben Miller, Леслі Менвілл / Lesley Manville, Гарі Кемп / Gary Kemp та інші

Сюжет:
Моллі Мун все своє свідоме життя провела в Хардвікскому притулку. Тут її знайшли зовсім маленькою на ґанку. Життя дівчинки в цьому закладі зовсім не схоже на казку: дівчатка з притулку її постійно дражнять і ображають, учителі тільки сварять і говорять, яка вона погана. Але найбільше бід приносить злісна міс Гадкінс, яка керує притулком. Їй просто не подобається Моллі, тому робить її юне життя нестерпним. Одного разу на очі дівчинці попадається дивна книга, яка виявилася підручником з гіпнозу. Тепер Моллі може керувати людьми, і вміло цим користується. Вона тікає з притулку, щоб переїхати в Лондон і знайти свого найкращого друга, а заодно стати всесвітньо популярною. За Моллі постійно полює якийсь чоловік, який хоче заволодіти книгою і отримати здатність керувати людьми. І у нього точно не добрі наміри.

Екранізація першої дитячої книги з серії "Моллі Мун" відомої британської письменниці Джорджії Бінг.

Фільм-переможець фестивалю "Чілдрен Кінофест" (2017, Україна)
Офіційний оригінальний трейлер:


Рейтинг MPAA: PG - рекомендується присутність батьків
Вікова категорія: 6+

Тривалість: 01:37:43
Якість: Remux 1080p
Відео:
кодек:
розмір кадру: 1920x1080
бітрейт: 19,5 Мб/с

Аудіо # 1:
мова: українська
переклад: багатоголосий закадровий | TV5
кодек: 2.0 [стерео]
бітрейт: 192 кб/с

Аудіо # 2:
мова: англійська
переклад: оригінал
кодек: -HD HRA 5.1
бітрейт: 2046 кб/с

Субтитри # 1:
мова: англійська (SDH)
тип: програмні (м'які)
формат: *.srt

Субтитри # 2:
мова: німецька (SDH)
тип: пререндерні
формат: pgs

Збережено оригінальні розділи, як на Blu-ray
Info
Код:
Complete name               : Molly Moon and the Incredible Book of Hypnotism (2015) [Ukr,Eng sub.Eng,Ger] Remux 1080p [Hurtom].
Format                      :
Format version              : Version 4
File size                   : 14.8 GiB
Duration                    : 1 h 37 min
Overall bit rate mode       : Variable
Overall bit rate            : 21.7 Mb/s
Movie name                  : Моллі Мун і чарівний підручник гіпнозу / Molly Moon and the Incredible Book of Hypnotism (2015) [Ukr,Eng sub.Eng,Ger] Remux 1080p [Hurtom]
Released date               : 2015
Encoded date                : UTC 2018-09-05 09:25:08
Writing application         : v26.0.0 ('In The Game') 64-bit
Writing library             : libebml v1.3.6 + v1.4.9
Cover                       : Yes
Comment                     : https://www.imdb.com/title/tt2445178/
Attachments                 : cover.jpg
DIRECTOR                    : Крістофер Н. Роулі / Christopher N. Rowley
GENRE                       : фентезі, пригодницький, сімейний
SYNOPSIS                    : Моллі Мун все своє свідоме життя провела в Хардвікскому притулку. Тут її знайшли зовсім маленькою на ґанку. Життя дівчинки в цьому закладі зовсім не схоже на казку: дівчатка з притулку її постійно дражнять і ображають, учителі тільки сварять і говорять, яка вона погана. Але найбільше бід приносить злісна міс Гадкінс, яка керує притулком. Їй просто не подобається Моллі, тому робить її юне життя нестерпним. Одного разу на очі дівчинці попадається дивна книга, яка виявилася підручником з гіпнозу. Тепер Моллі може керувати людьми, і вміло цим користується. Вона тікає з притулку, щоб переїхати в Лондон і знайти свого найкращого друга, а заодно стати всесвітньо популярною. За Моллі постійно полює якийсь чоловік, який хоче заволодіти книгою і отримати здатність керувати людьми. І у нього точно не добрі наміри... / Екранізація першої дитячої книги з серії "Моллі Мун" відомої британської письменниці Джорджії Бінг. / Фільм-переможець фестивалю "Чілдрен Кінофест" (2017, Україна)
Url                         : https://toloka.to/t94867

Video
ID                          : 1
Format                      : AVC
Format/Info                 : Advanced Video Codec
Format profile              : [email protected]
Format settings             : CABAC / 4 Ref Frames
Format settings, CABAC      : Yes
Format settings, ReFrames   : 4 frames
Codec ID                    : V_MPEG4/ISO/AVC
Duration                    : 1 h 37 min
Bit rate mode               : Variable
Bit rate                    : 19.5 Mb/s
Maximum bit rate            : 35.0 Mb/s
Width                       : 1 920 pixels
Height                      : 1 080 pixels
Display aspect ratio        : 16:9
Frame rate mode             : Constant
Frame rate                  : 24.000 FPS
Standard                    : NTSC
Color space                 : YUV
Chroma subsampling          : 4:2:0
Bit depth                   : 8 bits
Scan type                   : Progressive
Bits/(Pixel*Frame)          : 0.391
Stream size                 : 13.3 GiB (90%)
Title                       : Моллі Мун і чарівний підручник гіпнозу / Molly Moon and the Incredible Book of Hypnotism (2015) Remux 1080p [KRaLiMaRKo]
Language                    : English
Default                     : Yes
Forced                      : No
Color range                 : Limited
Color primaries             : BT.709
Transfer characteristics    : BT.709
Matrix coefficients         : BT.709

Audio #1
ID                          : 2
Format                      : AC-3
Format/Info                 : Audio Coding 3
Commercial name             : Dolby Digital
Codec ID                    : A_AC3
Duration                    : 1 h 37 min
Bit rate mode               : Constant
Bit rate                    : 192 kb/s
Channel(s)                  : 2 channels
Channel layout              : L R
Sampling rate               : 48.0 kHz
Frame rate                  : 31.250 FPS (1536 SPF)
Bit depth                   : 16 bits
Compression mode            : Lossy
Stream size                 : 134 MiB (1%)
Title                       : MVO [TV5], 2.0 [stereo] 192 Kbps
Language                    : Ukrainian
Service kind                : Complete Main
Default                     : Yes
Forced                      : Yes

Audio #2
ID                          : 3
Format                      : XBR
Format/Info                 : Digital Theater Systems
Commercial name             : -HD High Resolution Audio
Codec ID                    : A_DTS
Duration                    : 1 h 37 min
Bit rate mode               : Constant
Bit rate                    : 2 046 kb/s
Channel(s)                  : 6 channels
Channel layout              : C L R Ls Rs LFE
Sampling rate               : 48.0 kHz
Frame rate                  : 93.750 FPS (512 SPF)
Bit depth                   : 24 bits
Compression mode            : Lossy
Stream size                 : 1.40 GiB (9%)
Title                       : Original, -HD HRA 5.1 2046 Kbps
Language                    : English
Default                     : No
Forced                      : No

Text #1
ID                          : 4
Format                      : UTF-8
Codec ID                    : S_TEXT/UTF8
Codec ID/Info               : UTF-8 Plain Text
Duration                    : 1 h 36 min
Bit rate                    : 62 b/s
Count of elements           : 1754
Stream size                 : 44.2 KiB (0%)
Title                       : Eng [SDH]
Language                    : English
Default                     : No
Forced                      : No

Text #2
ID                          : 5
Format                      : PGS
Muxing mode                 : zlib
Codec ID                    : S_HDMV/PGS
Codec ID/Info               : Picture based subtitle format used on BDs/HD-DVDs
Duration                    : 1 h 31 min
Bit rate                    : 45.2 kb/s
Count of elements           : 2224
Stream size                 : 29.4 MiB (0%)
Title                       : Ger [SDH]
Language                    : German
Default                     : No
Forced                      : No

Menu
00:00:00.000                : en:00:00:00.000
00:06:43.458                : en:00:06:43.458
00:12:56.583                : en:00:12:56.583
00:20:20.292                : en:00:20:20.292
00:26:41.125                : en:00:26:41.125
00:32:01.375                : en:00:32:01.375
00:36:52.458                : en:00:36:52.458
00:42:47.125                : en:00:42:47.125
00:49:07.292                : en:00:49:07.292
00:56:26.167                : en:00:56:26.167
01:04:05.917                : en:01:04:05.917
01:11:04.167                : en:01:11:04.167
01:15:25.792                : en:01:15:25.792
01:20:19.208                : en:01:20:19.208
01:25:30.875                : en:01:25:30.875
01:32:04.083                : en:01:32:04.083


Джерело: &
Подяка Krigg070 та drop_plz за українську доріжку.


Золотий реліз (завантажене не впливає на рейтинг)
 Трекер:    Зареєстрований   

Завантажити / скачати фільм українською



відео для новачків



 Зареєстрований:   2018-09-05 13:04
 Розмір:   14.81 GB 
 Оцінка фільму:   8/10 (Голосів: 7)
   
Ваш часовий пояс: GMT + 2 Години

Нова тема   Відповісти