Люк Кейдж (Сезон 1) / Marvel’s Luke Cage (Season 1) (2017) 1080p H.265 Eng | Sub Ukr/Eng

Нові коментарі

Нова тема   Відповісти
Автор Повідомлення
ukr_anonymous 
Забанено
Забанено


З нами з: 16.04.18
Востаннє: 17.11.19
Повідомлень: 233

2018-09-05 10:39  
Люк Кейдж (Сезон 1) / Marvel’s Luke Cage (Season 1) (2017) 1080p H.265 Eng | Sub Ukr/Eng

Люк Кейдж (Сезон 1) / Marvel’s Luke Cage (Season 1) (2017) 1080p H.265 Eng | Sub Ukr/Eng


Жанр: супергеройський, бойовик, пригоди, контемпорарі-вестерн, кримінальна драма, наукова фантастика, трилер, неонуар
Країна: США



Кінокомпанія: Marvel Television, ABC Studios
Режисер: Пол МакГіган, Енді Годдар, Джордж Тіллман мол.
Актори: Майк Колтер, Френкі Фейзон, Ерік Ларей Харві, Даріус Калеб, Симона Міссік, Тео Россі, Френк Уейл, Келлен Сі Уінгейт, Елфрі Вудард, Джейден Кейн та інші.

Сюжет:
В результаті невдалого експерименту ув'язнений, якого помилково звинувачують у злочині, отримує надздібності. Після чого йому вдається втекти з в'язниці і приховати власну особистість, взявши собі нове ім'я - Люк Кейдж. Він має намір вести звичайний, непомітний спосіб життя і тримати в таємниці свої надздібності. Але через деякий час в Гарлемі Люк потрапляє в епіцентр безжальної гангстерської розбірки, що спонукає його кинути виклик криміналітету цього району Нью-Йорка ...


Тривалість: 1 серія: ~50 хв. (цілком серій: 13)
Якість:
Відео:
кодек: H.265 (HEVC)
розмір кадру: 1920 x 1080
бітрейт: 1 607 кб/с
бітова глибина: 10 біт
Увага! Перед завантаженням переконайтесь, що ваш пристрій відтворення (та/або ПЗ) підтримує H.265 (HEVC)

Аудіо:
мова: англійська
переклад: оригінал
кодек: 5.1
бітрейт: 448 кб/с

Субтитри # 1:
мова: українська (Full)
тип: програмні (м'які)
формат: *.srt

Субтитри # 2:
мова: англійська
тип: програмні (м'які)
формат: *.pgs


Info
Код:
General
Unique ID                                : 83229061916740741473367014539500446905 (0x3E9D5591FD4779634238613BE737E4B9)
Complete name                            : E:\Serials\Marvel's Luke Cage S1 (2016) H.265\Marvel's Luke Cage S01E01 1080p H.265 [ENG] [Sub(UKR_ENG)].
Format                                   :
Format version                           : Version 4 / Version 2
File size                                : 808 MiB
Duration                                 : 54 min 5 s
Overall bit rate                         : 2 088 kb/s
Movie name                               : Marvel's Luke Cage (2016) S01E01 - Moment of Truth
Encoded date                             : UTC 2018-09-04 16:42:38
Writing application                      : v20.0.0 ('I Am The Sun') 32-bit
Writing library                          : libebml v1.3.5 + v1.4.8
Cover                                    : Yes
Attachments                              : Cover.jpg

Video
ID                                       : 1
Format                                   : HEVC
Format/Info                              : High Efficiency Video Coding
Format profile                           : Main [email protected]@Main
Codec ID                                 : V_MPEGH/ISO/HEVC
Duration                                 : 54 min 5 s
Bit rate                                 : 1 607 kb/s
Width                                    : 1 920 pixels
Height                                   : 1 080 pixels
Display aspect ratio                     : 16:9
Frame rate mode                          : Constant
Frame rate                               : 23.976 (24000/1001) FPS
Color space                              : YUV
Chroma subsampling                       : 4:2:0
Bit depth                                : 10 bits
Bits/(Pixel*Frame)                       : 0.032
Stream size                              : 622 MiB (77%)
Writing library                          : x265 2.6+12-7bd8751a8183:[Windows][MSVC 1912][64 bit] 10bit
Encoding settings                        : cpuid=1173503 / frame-threads=3 / numa-pools=12 / wpp / no-pmode / no-pme / no-psnr / ssim / log-level=2 / input-csp=1 / input-res=1920x1080 / interlace=0 / total-frames=77804 / level-idc=0 / high-tier=1 / uhd-bd=0 / ref=3 / no-allow-non-conformance / no-repeat-headers / annexb / no-aud / no-hrd / info / hash=0 / no-temporal-layers / open-gop / min-keyint=23 / keyint=250 / gop-lookahead=0 / bframes=8 / b-adapt=2 / b-pyramid / bframe-bias=0 / rc-lookahead=50 / lookahead-slices=6 / scenecut=40 / no-intra-refresh / ctu=64 / min-cu-size=8 / no-rect / no-amp / max-tu-size=32 / tu-inter-depth=1 / tu-intra-depth=1 / limit-tu=0 / rdoq-level=0 / dynamic-rd=0.00 / no-ssim-rd / signhide / no-tskip / nr-intra=0 / nr-inter=0 / no-constrained-intra / no-strong-intra-smoothing / max-merge=3 / limit-refs=3 / no-limit-modes / me=3 / subme=3 / merange=57 / temporal-mvp / weightp / no-weightb / no-analyze-src-pics / deblock=0:0 / sao / no-sao-non-deblock / rd=3 / no-early-skip / no-rskip / no-fast-intra / no-tskip-fast / no-cu-lossless / no-b-intra / no-splitrd-skip / rdpenalty=0 / psy-rd=1.50 / psy-rdoq=0.00 / no-rd-refine / analysis-reuse-mode=0 / no-lossless / cbqpoffs=0 / crqpoffs=0 / rc=crf / crf=21.0 / qcomp=0.60 / qpstep=4 / stats-write=0 / stats-read=0 / ipratio=1.40 / pbratio=1.30 / aq-mode=3 / aq-strength=0.80 / cutree / zone-count=0 / no-strict-cbr / qg-size=32 / no-rc-grain / qpmax=69 / qpmin=0 / no-const-vbv / sar=0 / overscan=0 / videoformat=5 / range=0 / colorprim=2 / transfer=2 / colormatrix=2 / chromaloc=0 / display-window=0 / max-cll=0,0 / min-luma=0 / max-luma=1023 / log2-max-poc-lsb=8 / vui-timing-info / vui-hrd-info / slices=1 / no-opt-qp-pps / no-opt-ref-list-length-pps / no-multi-pass-opt-rps / scenecut-bias=0.05 / no-opt-cu-delta-qp / no-aq-motion / no-hdr / no-hdr-opt / no-dhdr10-opt / analysis-reuse-level=5 / scale-factor=0 / refine-intra=0 / refine-inter=0 / refine-mv=0 / no-limit-sao / ctu-info=0 / no-lowpass-dct / refine-mv-type=0 / copy-pic=1
Default                                  : Yes
Forced                                   : No

Audio
ID                                       : 2
Format                                   :
Format/Info                              : Advanced Audio Codec
Format profile                           : LC
Codec ID                                 : A_AAC-2
Duration                                 : 54 min 5 s
Bit rate                                 : 448 kb/s
Channel(s)                               : 6 channels
Channel positions                        : Front: L C R, Side: L R, LFE
Sampling rate                            : 48.0 kHz
Frame rate                               : 46.875 FPS (1024 SPF)
Compression mode                         : Lossy
Stream size                              : 173 MiB (21%)
Title                                    : Original
Language                                 : English
Default                                  : Yes
Forced                                   : Yes

Text #1
ID                                       : 3
Format                                   : UTF-8
Codec ID                                 : S_TEXT/UTF8
Codec ID/Info                            : UTF-8 Plain Text
Duration                                 : 52 min 38 s
Bit rate                                 : 75 b/s
Count of elements                        : 674
Stream size                              : 29.3 KiB (0%)
Language                                 : Ukrainian
Default                                  : Yes
Forced                                   : No

Text #2
ID                                       : 4
Format                                   : PGS
Muxing mode                              : zlib
Codec ID                                 : S_HDMV/PGS
Codec ID/Info                            : Picture based subtitle format used on BDs/HD-DVDs
Duration                                 : 52 min 42 s
Bit rate                                 : 66.8 kb/s
Count of elements                        : 1476
Stream size                              : 25.2 MiB (3%)
Language                                 : English
Default                                  : No
Forced                                   : No

Menu
00:00:00.000                             : en:Chapter 1
00:01:24.751                             : en:Chapter 2
00:10:05.313                             : en:Chapter 3
00:20:13.504                             : en:Chapter 4
00:30:37.627                             : en:Chapter 5
00:40:05.570                             : en:Chapter 6
00:52:53.545                             : en:Chapter 7
Скріншоти





Перелік серій та назва
Код:
1. Moment of Truth
2. Code of the Streets
3. Who's Gonna Take the Weight?
4. Step in the Arena
5. Just to Get a Rep
6. Suckas Need Bodyguards
7. Manifest
8. Blowin' Up the Spot
9. DWYCK
10. Take It Personal
11. Now You're Mine
12. Soliloquy of Chaos
13. You Know My Steez

За надані субтитри подяка - krigg070

Джерело:
Особиста оцінка: 8 - мені сподобалося
ЗАЛИШАЙТЕСЬ ЯКОМОГА ДОВШЕ НА РОЗДАЧІ!
ЗАВАНТАЖИВ САМ - ДАЙ ЗАВАНТАЖИТИ ІНШИМ


Бронзовий реліз (на рейтинг впливає 75% завантаженого)
 Трекер:    Зареєстрований   

Завантажити / скачати серіал українською



відео для новачків



 Зареєстрований:   2018-09-05 10:39
 Розмір:   9.86 GB 
 Оцінка серіалу:   9.9/10 (Голосів: 14)
   
11FrYkT 
Модератор відео


З нами з: 20.02.11
Востаннє: 05.12.20
Повідомлень: 7059

2018-09-07 10:21  
те саме
Nahalist 
VIP


З нами з: 12.12.13
Востаннє: 05.12.20
Повідомлень: 323

2019-06-12 15:33  
Я геть не проти Капітана Америки. Цей персонаж давно мені подобається. Та все ж де логіка ?? Люк Кейдж (особливо в другому сезоні) мав здібності набагато кращі. Його запросто можна було в Месники записувать. Може йому це й не треба та він реально б товк інопланетних нападників, якби нападали на нього. Жаль третій сезон не побачим ніколи Sad (1)
S3M4RiL 
VIP


З нами з: 25.09.16
Востаннє: 01.12.20
Повідомлень: 353

2019-08-29 15:33  
Nahalist написано:
Я геть не проти Капітана Америки. Цей персонаж давно мені подобається. Та все ж де логіка ?? Люк Кейдж (особливо в другому сезоні) мав здібності набагато кращі.

У кепа і бойова підготовка, і моральні якості і навіть сила більша. У зимовому солдаті він міг вертоліт втримати, а в месниках тримати руку таноса. Так що в бою люка проти кепа я б ставив на кепа.
Але в месники беруть не за суперсилу. Там скоріше своя особлива тусовочка, з корєшів які довіряють одне одному. Тай взагалі, діснеї поклали хрест на всіх серіалах, навколо КВМ. І "агенти щита", і "захисники", і "плащ і кинжал" разом з "втікачами" більше не канон. Буквально так само як було з "зоряними війнами".

Fouley 
Поважний учасник


З нами з: 01.06.11
Востаннє: 04.12.20
Повідомлень: 152

2019-09-29 17:17  
Скажіть будь ласка, а коли ж буде другий сезон із субтитрами? Може хто знає. Бо почав дивитись, сподобалось, а російською далі не дуже хочеться. Дякую вамHappy
tpolit 
Попереджень: 1
Попереджень: 1 


З нами з: 10.01.15
Востаннє: 05.12.20
Повідомлень: 644

2019-10-16 21:06  
Класний серіал. Дякую.
leicheman 
Відео Гуртом - фільмокрай
Відео Гуртом - фільмокрай


З нами з: 03.07.14
Востаннє: 05.12.20
Повідомлень: 5709

2019-10-16 21:32  
Fouley написано:
коли ж буде другий сезон із субтитрами

мабуть ніколи, якщо брати до уваги, що ці серіали скоро зникнуть з нетфліксу, а субтитри там тільки до 1 сезону.

SerJKee 
Новенький


З нами з: 23.05.09
Востаннє: 05.12.20
Повідомлень: 3

2020-04-26 17:57  
так що чути про другий сезон?
leicheman 
Відео Гуртом - фільмокрай
Відео Гуртом - фільмокрай


З нами з: 03.07.14
Востаннє: 05.12.20
Повідомлень: 5709

2020-04-26 18:31  
SerJKee написано:
так що чути про другий сезон?

нічого, забудьте бо субтитрів вже не буде на нетфлікс до нього.

Ваш часовий пояс: GMT + 2 Години

Нова тема   Відповісти