Снігова королева 3: Вогонь і лід / The Snow Queen 3 (2016) AVC Ukr/Eng

Нові коментарі

Нова тема   Відповісти
Останній раз роздавалося staf777 (2020-10-23)
Автор Повідомлення
staf777 
Відео Гуртом - підтримка та поширення
Відео Гуртом - підтримка та поширення


З нами з: 16.11.16
Востаннє: 23.10.20
Повідомлень: 4213

2018-09-04 21:17  
Снігова королева 3: Вогонь і лід / The Snow Queen 3 (2016) AVC Ukr/Eng



Жанр: комедія, мультфільм, пригоди, сімейний
Країна: Росія



Кінокомпанія: 3Beep,Wizart Animation
Режисер: Олексій Ціцілін
Актори: Наталія Бистрова, Філіп Лєбєдєв, Олександр Груздєв, Ольга Шорохова

Сюжет:
Рідкісний дар вплутуватися у всілякі неприємності — їх сімейна риса, та й що взяти з тих, хто виріс серед снігів у компанії тролів. Але подорослішавши, Кай і Герда виходять на новий рівень — тепер вони стануть винуватцями катастрофи світового масштабу...


Тривалість: 01:29:10
Якість: AVC

Відео:
кодек:
розмір кадру: 1146x480
бітрейт: 2606 кб/с

Аудіо # 1:
мова: українська
переклад: професійний дубльований
кодек: 5.1
бітрейт: 448 кб/с

Аудіо # 2:
мова: англійська
переклад: оригінал
кодек: 5.1
бітрейт: 448 кб/с




Info
Код:

General
Unique ID                   : 67198909983519564740520495923270410924 (0x328E0A0F59F77AFCAE81D6D8AA2262AC)
Complete name               : H:\» Українське озвучення » Мультфільми\The Snow Queen 3 (2016) AVC [UKR_ENG] [Hurtom].
Format                      :
Format version              : Version 4 / Version 2
File size                   : 2.18 GiB
Duration                    : 1 h 29 min
Overall bit rate            : 3 503 kb/s
Movie name                  : The Snow Queen 3 (2016) AVC [UKR_ENG] [Hurtom]
Encoded date                : UTC 2018-09-04 18:54:39
Writing application         : v24.0.0 ('Beyond The Pale') 64-bit
Writing library             : libebml v1.3.6 + v1.4.9
Cover                       : Yes
Attachments                 : cover.jpg

Video
ID                          : 1
Format                      : AVC
Format/Info                 : Advanced Video Codec
Format profile              : [email protected]
Format settings             : CABAC / 10 Ref Frames
Format settings, CABAC      : Yes
Format settings, ReFrames   : 10 frames
Codec ID                    : V_MPEG4/ISO/AVC
Duration                    : 1 h 29 min
Bit rate                    : 2 606 kb/s
Width                       : 1 146 pixels
Height                      : 480 pixels
Display aspect ratio        : 2.40:1
Frame rate mode             : Constant
Frame rate                  : 23.976 (24000/1001) FPS
Color space                 : YUV
Chroma subsampling          : 4:2:0
Bit depth                   : 8 bits
Scan type                   : Progressive
Bits/(Pixel*Frame)          : 0.198
Stream size                 : 1.62 GiB (74%)
Title                       : potroks
Writing library             : core 152 r2851M ba24899
Encoding settings           : cabac=1 / ref=10 / deblock=1:-1:-1 / analyse=0x3:0x132 / me=umh / subme=11 / psy=1 / psy_rd=1.02:0.10 / mixed_ref=1 / me_range=48 / chroma_me=1 / trellis=2 / 8x8dct=1 / cqm=0 / deadzone=21,11 / fast_pskip=0 / chroma_qp_offset=-3 / threads=9 / lookahead_threads=2 / sliced_threads=0 / nr=0 / decimate=0 / interlaced=0 / bluray_compat=0 / constrained_intra=0 / bframes=12 / b_pyramid=2 / b_adapt=2 / b_bias=0 / direct=3 / weightb=1 / open_gop=0 / weightp=2 / keyint=240 / keyint_min=23 / scenecut=40 / intra_refresh=0 / rc_lookahead=0 / rc=2pass / mbtree=0 / bitrate=2606 / ratetol=1.0 / qcomp=0.70 / qpmin=0 / qpmax=69 / qpstep=4 / cplxblur=20.0 / qblur=0.5 / vbv_maxrate=50000 / vbv_bufsize=35714 / nal_hrd=none / filler=0 / ip_ratio=1.40 / pb_ratio=1.30 / aq=1:0.75
Language                    : Russian
Default                     : Yes
Forced                      : No

Audio #1
ID                          : 2
Format                      : AC-3
Format/Info                 : Audio Coding 3
Codec ID                    : A_AC3
Duration                    : 1 h 29 min
Bit rate mode               : Constant
Bit rate                    : 448 kb/s
Channel(s)                  : 6 channels
Channel positions           : Front: L C R, Side: L R, LFE
Sampling rate               : 48.0 kHz
Frame rate                  : 31.250 FPS (1536 SPF)
Bit depth                   : 16 bits
Compression mode            : Lossy
Stream size                 : 286 MiB (13%)
Title                       : [UA-DUB]
Language                    : Ukrainian
Service kind                : Complete Main
Default                     : Yes
Forced                      : Yes

Audio #2
ID                          : 3
Format                      : AC-3
Format/Info                 : Audio Coding 3
Codec ID                    : A_AC3
Duration                    : 1 h 29 min
Bit rate mode               : Constant
Bit rate                    : 448 kb/s
Channel(s)                  : 6 channels
Channel positions           : Front: L C R, Side: L R, LFE
Sampling rate               : 48.0 kHz
Frame rate                  : 31.250 FPS (1536 SPF)
Bit depth                   : 16 bits
Compression mode            : Lossy
Stream size                 : 286 MiB (13%)
Title                       : DD 5.1 @ 448 kbps
Language                    : English
Service kind                : Complete Main
Default                     : No
Forced                      : No

Menu
00:00:00.000                : :(01)00:00:00:000
00:07:50.093                : :(02)00:07:50:093
00:15:37.686                : :(03)00:15:37:686
00:21:28.703                : :(04)00:21:28:703
00:28:56.733                : :(05)00:28:56:733
00:37:13.146                : :(06)00:37:13:146
00:43:49.668                : :(07)00:43:49:668
00:50:59.847                : :(08)00:50:59:847
01:00:15.612                : :(09)01:00:15:612
01:05:31.885                : :(10)01:05:31:885
01:14:14.658                : :(11)01:14:14:658
01:20:08.177                : :(12)01:20:08:177
01:29:08.966                : :(13)01:29:08:966
Подяка пану AngryBirdsUA за доріжку та пану Hanway за синхронізацію.

Джерело: &


 Трекер:    Зареєстрований   

Завантажити / скачати мультфільм українською



відео для новачків



 Зареєстрований:   2018-09-05 08:25
 Розмір:   2.18 GB 
 Оцінка мультфільму:   4.6/10 (Голосів: 35)
   
bot 
робот


З нами з: 30.09.07
Востаннє: 26.05.05
Повідомлень: 25919

2018-09-05 08:25  
Тему перенесено з Анонси релізів до форуму Мультфільми


staf777

Ваш часовий пояс: GMT + 2 Години

Нова тема   Відповісти