Поля смерті / The Killing Fields (1984) 720p Ukr/Eng | Sub Ukr/Eng

Нові коментарі

Нова тема   Відповісти
Автор Повідомлення
Anonymous 







2018-09-04 19:40  
Поля смерті / The Killing Fields (1984) 720p Ukr/Eng | Sub Ukr/Eng

Поля смерті / The Killing Fields (1984) 720p Ukr/Eng | Sub Ukr/Eng


Жанр: драма, воєнний
Країна: Велика Британія

Володар премії Оскар за найкращу чоловічу роль другого плану (Гайнґ С. Нґор), найкращу роботу оператора та найкращий монтаж

Кінокомпанія: Goldcrest Films International, International Film Investors, Enigma Productions
Режисер: Роланд Жоффе / Roland Joffé
Актори: Сем Вотерстон / Sam Waterston, Гайнґ С. Нґор / Haing S. Ngor, Джон Малкович / John Malkovich, Джуліан Сендс / Julian Sands, Крейґ Т. Нельсон / Craig T. Nelson, Сполдінґ Ґрей / Spalding Gray, Біл Патерсон / Bill Paterson, Атол Фуґард / Athol Fugard, Ґрем Кеннеді / Graham Kennedy, Кетерін Крапум Чей / Katherine Krapum Chey та інші

Сюжет:
Кореспондент "Нью-Йорк Таймз" Сідні Шенберґ пише репортажі про громадянську війну між "червоними кхмерами" і урядом. Його незамінний помічник і друг - добрий, розумний і інтелігентний Діт Пран. Як перекладачеві та провіднику, йому немає рівних. Коли "червоні кхмери" перемагають, американці евакуюються з Камбоджі. Діт Пран відправляє з ними сім'ю, але сам лишається з Сідні, щоб допомогти йому написати про переворот. Шенберґу вдасться вибратися з країни, проте ситуація Прана зовсім інша: він місцевий і абсолютно беззахисний перед революційним терором "червоних кхмерів"...


Тривалість: 02:21:52
Якість: 720p
Відео:
кодек:
розмір кадру: 1274х720
бітрейт: 6500 кб/с

Аудіо # 1:
мова: українська
переклад: двоголосий закадровий
кодек: 2.0
бітрейт: 192 кб/с

Аудіо # 2:
мова: англійська
переклад: оригінал
кодек: 5.1
бітрейт: 1509 кб/с

Аудіо # 3:
мова: англійська
переклад: коментарі режисера
кодек: 2.0
бітрейт: 192 кб/с

Субтитри:
мова: українська
тип: програмні (м'які)
формат: *.srt

Субтитри:
мова: англійська
тип: програмні (м'які)
формат: *.srt
Info
General
Unique ID : 194065950236783280695659878452388916277 (0x91FFBE12D263C7BFAADAFC048C0F6C35)
Format :
Format version : Version 4 / Version 2
File size : 8.32 GiB
Duration : 2 h 21 min
Overall bit rate : 8 395 kb/s
Encoded date : UTC 2018-09-04 17:31:57
Writing application : v6.1.0 ('Old Devil') built on Mar 4 2013 09:10:42
Writing library : libebml v1.3.0 + v1.4.0

Video
ID : 1
Format : AVC
Format/Info : Advanced Video Codec
Format profile : [email protected]
Format settings : CABAC / 8 Ref Frames
Format settings, CABAC : Yes
Format settings, ReFrames : 8 frames
Codec ID : V_MPEG4/ISO/AVC
Duration : 2 h 21 min
Bit rate : 6 500 kb/s
Width : 1 274 pixels
Height : 720 pixels
Display aspect ratio : 16:9
Frame rate mode : Constant
Frame rate : 23.976 (24000/1001) FPS
Color space : YUV
Chroma subsampling : 4:2:0
Bit depth : 8 bits
Scan type : Progressive
Bits/(Pixel*Frame) : 0.296
Stream size : 6.28 GiB (75%)
Writing library : core 119 r2106kMod 07efeb4
Encoding settings : cabac=1 / ref=8 / deblock=1:-2:-1 / analyse=0x3:0x113 / me=umh / subme=11 / psy=1 / fade_compensate=0.00 / psy_rd=1.20:0.10 / mixed_ref=1 / me_range=48 / chroma_me=1 / trellis=2 / 8x8dct=1 / cqm=0 / deadzone=21,11 / fast_pskip=0 / chroma_qp_offset=-3 / threads=12 / sliced_threads=0 / nr=0 / decimate=0 / interlaced=0 / bluray_compat=0 / constrained_intra=0 / bframes=8 / b_pyramid=2 / b_adapt=2 / b_bias=0 / direct=3 / weightb=1 / open_gop=0 / weightp=2 / keyint=250 / keyint_min=23 / scenecut=40 / intra_refresh=0 / rc_lookahead=40 / rc=2pass / mbtree=0 / bitrate=6500 / ratetol=1.0 / qcomp=0.65 / qpmin=0 / qpmax=69 / qpstep=4 / cplxblur=20.0 / qblur=0.5 / vbv_maxrate=50000 / vbv_bufsize=62500 / nal_hrd=none / ip_ratio=1.40 / pb_ratio=1.30 / aq=3:0.90
Language : English
Default : Yes
Forced : No
Color range : Limited
Matrix coefficients : BT.709

Audio #1
ID : 2
Format : AC-3
Format/Info : Audio Coding 3
Codec ID : A_AC3
Duration : 2 h 21 min
Bit rate mode : Constant
Bit rate : 192 kb/s
Channel(s) : 2 channels
Channel positions : Front: L R
Sampling rate : 48.0 kHz
Frame rate : 31.250 FPS (1536 SPF)
Bit depth : 16 bits
Compression mode : Lossy
Stream size : 195 MiB (2%)
Title : UKR
Language : Ukrainian
Service kind : Complete Main
Default : Yes
Forced : Yes

Audio #2
ID : 3
Format :
Format/Info : Digital Theater Systems
Codec ID : A_DTS
Duration : 2 h 21 min
Bit rate mode : Constant
Bit rate : 1 509 kb/s
Channel(s) : 6 channels
Channel positions : Front: L C R, Side: L R, LFE
Sampling rate : 48.0 kHz
Frame rate : 93.750 FPS (512 SPF)
Bit depth : 16 bits
Compression mode : Lossy
Stream size : 1.50 GiB (18%)
Title : Eng
Language : English
Default : No
Forced : No

Audio #3
ID : 4
Format : AC-3
Format/Info : Audio Coding 3
Codec ID : A_AC3
Duration : 2 h 21 min
Bit rate mode : Constant
Bit rate : 192 kb/s
Channel(s) : 2 channels
Channel positions : Front: L R
Sampling rate : 48.0 kHz
Frame rate : 31.250 FPS (1536 SPF)
Bit depth : 16 bits
Compression mode : Lossy
Stream size : 195 MiB (2%)
Title : Director's commentary
Language : English
Service kind : Complete Main
Default : No
Forced : No

Text #1
ID : 5
Format : UTF-8
Codec ID : S_TEXT/UTF8
Codec ID/Info : UTF-8 Plain Text
Title : UKR
Language : Ukrainian
Default : Yes
Forced : No

Text #2
ID : 6
Format : UTF-8
Codec ID : S_TEXT/UTF8
Codec ID/Info : UTF-8 Plain Text
Language : English
Default : No
Forced : No

Menu
00:00:00.000 : en:Chapter 1
00:12:30.116 : en:Chapter 2
00:29:50.989 : en:Chapter 3
00:44:01.972 : en:Chapter 4
00:58:57.333 : en:Chapter 5
01:11:29.852 : en:Chapter 6
01:22:15.330 : en:Chapter 7
01:30:02.630 : en:Chapter 8
01:37:06.954 : en:Chapter 9
01:46:41.328 : en:Chapter 10
01:59:14.113 : en:Chapter 11
02:11:33.352 : en:Chapter 12
Скріншоти









Подяка п.Tanat13 та п. omm за запис звуку/синхронізацію та українізований постер, п. Віктор'у за українські субтитри
Особиста подяка пану denixx за надану матеріальну допомогу на підтримку цього і майбутніх релізів.
Джерело:


Срібний реліз (на рейтинг впливає 50% завантаженого)
 Трекер:    Зареєстрований   

Завантажити / скачати фільм українською



відео для новачків



 Зареєстрований:   2018-09-04 19:40
 Розмір:   8.32 GB 
 Оцінка фільму:   10/10 (Голосів: 5)
   
Інші релізи
   Поля смерті / The Killing Fields (1984) Ukr/Eng | Sub Ukr/Eng omm  4 / 1   1.84 GB   2015-05-30 14:50 
Форкуш 
VIP


З нами з: 03.02.10
Востаннє: 13.12.18
Повідомлень: 2260

2018-09-04 20:17  
Дуже важке, але потрібне кіно! Всім варто дивитися.
Ваш часовий пояс: GMT + 2 Години

Нова тема   Відповісти