Чоловічий стриптиз / The Full Monty (1997) 1080p Ukr/Eng | Sub Eng

Нові коментарі

Нова тема   Відповісти
Автор Повідомлення
Anonymous 







2018-09-04 19:50  
Чоловічий стриптиз / The Full Monty (1997) 1080p Ukr/Eng | Sub Eng

Чоловічий стриптиз / The Full Monty (1997) 1080p Ukr/Eng | Sub Eng


Жанр: комедія, музичний, драма
Країна: Велика Британія, США



Кінокомпанія: Redwave Films, Channel Four Films, Twentieth Century Fox Film Corporation
Режисер: Пітер Каттанео / Peter Cattaneo
Актори: Роберт Карлайл / Robert Carlyle, Том Вілкінсон / Tom Wilkinson, Марк Едді / Mark Addy, Леслі Шарп / Lesley Sharp, Емілі Вуф / Emily Woof, Стів Х'юсон / Steve Huison та інші

Сюжет:
Фільм починається з радісної кінохроніки 1960-х, коли Шеффілд був одним з провідних промислових центрів Йоркшира (Англія) з чисельністю населення майже в півмільйона людей і розвиненою сталеливарною промисловістю.
Минуло 25 років. Час заводів-гігантів з виробництва сталі минув. У напівзруйнованих корпусах цехів гуляє вітер, а колишні робітники шукають старі металеві деталі, щоб здати їх на металобрухт. Роботи немає. Шість місяців в місцевому «центрі зайнятості» повністю розвіяли надію на отримання будь-якої роботи.
Шість безробітних - Гез, Дейв, Ломпер, Джеральд, Кінь і Гай - намагаються якось вижити. Важка ситуація в сім'ях і посилення вимоги кредиторів змушують шукати хоч щось, чіплятися за примарні надії.


Тривалість: 01:31:30
Якість: 1080p
Відео:
кодек:
розмір кадру: 1920х1040
бітрейт: 14 Мб/с

Аудіо # 1:
мова: українська
переклад: двоголосий закадровий
кодек: 5.1
бітрейт: 384 кб/с

Аудіо # 2:
мова: англійська
переклад: оригінал
кодек: 5.1
бітрейт: 1509 кб/с

Субтитри:
мова: англійська
тип: програмні (м'які)
формат: *.srt
Info
General
Unique ID : 233448017134049342304884084878817117294 (0xAFA073E1E508A2978C3B3F2D12B0446E)
Format :
Format version : Version 4 / Version 2
File size : 10.3 GiB
Duration : 1 h 31 min
Overall bit rate : 16.2 Mb/s
Encoded date : UTC 2018-09-04 16:40:44
Writing application : v6.1.0 ('Old Devil') built on Mar 4 2013 09:10:42
Writing library : libebml v1.3.0 + v1.4.0

Video
ID : 1
Format : AVC
Format/Info : Advanced Video Codec
Format profile : [email protected]
Format settings : CABAC / 4 Ref Frames
Format settings, CABAC : Yes
Format settings, ReFrames : 4 frames
Codec ID : V_MPEG4/ISO/AVC
Duration : 1 h 31 min
Bit rate : 14.0 Mb/s
Width : 1 920 pixels
Height : 1 040 pixels
Display aspect ratio : 1.85:1
Frame rate mode : Constant
Frame rate : 23.976 (24000/1001) FPS
Color space : YUV
Chroma subsampling : 4:2:0
Bit depth : 8 bits
Scan type : Progressive
Bits/(Pixel*Frame) : 0.292
Stream size : 8.92 GiB (86%)
Writing library : core 128 r2216kMod 198a7ea
Encoding settings : cabac=1 / ref=4 / deblock=1:-3:-3 / analyse=0x3:0x113 / me=umh / subme=9 / psy=1 / fade_compensate=0.00 / psy_rd=1.22:0.00 / mixed_ref=1 / me_range=16 / chroma_me=1 / trellis=2 / 8x8dct=1 / cqm=0 / deadzone=21,11 / fast_pskip=0 / chroma_qp_offset=-2 / threads=6 / lookahead_threads=1 / sliced_threads=0 / nr=0 / decimate=0 / interlaced=0 / bluray_compat=0 / constrained_intra=0 / bframes=8 / b_pyramid=2 / b_adapt=2 / b_bias=0 / direct=3 / weightb=1 / open_gop=0 / weightp=2 / keyint=250 / keyint_min=23 / scenecut=40 / intra_refresh=0 / rc=crf / mbtree=0 / crf=18.0000 / qcomp=0.80 / qpmin=0 / qpmax=69 / qpstep=4 / ip_ratio=1.30 / pb_ratio=1.20 / aq=1:0.80
Language : English
Default : Yes
Forced : No

Audio #1
ID : 2
Format : AC-3
Format/Info : Audio Coding 3
Codec ID : A_AC3
Duration : 1 h 31 min
Bit rate mode : Constant
Bit rate : 384 kb/s
Channel(s) : 6 channels
Channel positions : Front: L C R, Side: L R, LFE
Sampling rate : 48.0 kHz
Frame rate : 31.250 FPS (1536 SPF)
Bit depth : 16 bits
Compression mode : Lossy
Stream size : 251 MiB (2%)
Title : UKR (TET)
Language : Ukrainian
Service kind : Complete Main
Default : Yes
Forced : Yes

Audio #2
ID : 3
Format :
Format/Info : Digital Theater Systems
Codec ID : A_DTS
Duration : 1 h 31 min
Bit rate mode : Constant
Bit rate : 1 509 kb/s
Channel(s) : 6 channels
Channel positions : Front: L C R, Side: L R, LFE
Sampling rate : 48.0 kHz
Frame rate : 93.750 FPS (512 SPF)
Bit depth : 24 bits
Compression mode : Lossy
Stream size : 988 MiB (9%)
Language : English
Default : No
Forced : No

Text
ID : 4
Format : UTF-8
Codec ID : S_TEXT/UTF8
Codec ID/Info : UTF-8 Plain Text
Language : English
Default : No
Forced : No

Menu
00:00:00.000 : en:Chapter 1
00:02:23.143 : en:Chapter 2
00:04:45.659 : en:Chapter 3
00:06:05.990 : en:Chapter 4
00:06:55.163 : en:Chapter 5
00:08:24.170 : en:Chapter 6
00:08:41.895 : en:Chapter 7
00:09:59.181 : en:Chapter 8
00:12:24.367 : en:Chapter 9
00:14:05.301 : en:Chapter 10
00:17:59.702 : en:Chapter 11
00:19:50.897 : en:Chapter 12
00:22:34.478 : en:Chapter 13
00:28:13.400 : en:Chapter 14
00:30:44.217 : en:Chapter 15
00:33:17.744 : en:Chapter 16
00:35:37.425 : en:Chapter 17
00:37:18.527 : en:Chapter 18
00:39:02.757 : en:Chapter 19
00:42:23.623 : en:Chapter 20
00:45:47.702 : en:Chapter 21
00:46:56.563 : en:Chapter 22
00:49:01.563 : en:Chapter 23
00:52:17.050 : en:Chapter 24
00:53:48.306 : en:Chapter 25
00:55:36.623 : en:Chapter 26
00:57:27.485 : en:Chapter 27
01:00:29.208 : en:Chapter 28
01:02:42.717 : en:Chapter 29
01:04:26.070 : en:Chapter 30
01:08:03.829 : en:Chapter 31
01:14:43.979 : en:Chapter 32
01:18:29.078 : en:Chapter 33
01:21:06.152 : en:Chapter 34
01:24:01.411 : en:Chapter 35
01:27:18.733 : en:Chapter 36
Скріншоти








За українську доріжку подяка п.: Sando7, _oles
Особиста подяка пану denixx за надану матеріальну допомогу на підтримку цього і майбутніх релізів.
Джерело:


Срібний реліз (на рейтинг впливає 50% завантаженого)
 Трекер:    Зареєстрований   

Завантажити / скачати фільм українською



відео для новачків



 Зареєстрований:   2018-09-04 19:50
 Розмір:   10.34 GB 
 Оцінка фільму:   9.8/10 (Голосів: 4)
   
Інші релізи
EvGaS 
Відео Гуртом - субтитрування
Відео Гуртом - субтитрування


З нами з: 27.02.12
Востаннє: 16.10.18
Повідомлень: 4995

2018-09-05 06:22  
Anonymous написано:
Час заводів-гігантів з виробництва сталі пройшло.

Щось тут не до ладу.

+380954897458 
Свій


З нами з: 02.06.17
Востаннє: 17.10.18
Повідомлень: 73

2018-09-05 15:06  
Каттанео, а не Гаттанео. Цікаво, пам'ятаю, фільм мав кілька номінацій на Оскар, та я ще його не бачив. А українською треба обов'язково!
Ваш часовий пояс: GMT + 2 Години

Нова тема   Відповісти