Пророк / Next (2007) 1080p 2xUkr/Eng | Sub Ukr/Eng

Нові коментарі

Нова тема   Відповісти
Автор Повідомлення
Anonymous 







2018-09-04 19:32  
Пророк / Next (2007) 1080p 2xUkr/Eng | Sub Ukr/Eng

Пророк / Next (2007) 1080p 2xUkr/Eng | Sub Ukr/Eng


Жанр: фантастика, бойовик, трилер, мелодрама
Країна: США



Кінокомпанія: Paramount Pictures, Revolution Studios, Initial Entertainment Group (IEG), Virtual Studios, Saturn Films, Broken Road Productions, Eyetronics
Режисер: Лі Тамахорі / Lee Tamahori
Актори: Ніколас Кейдж / Nicolas Cage, Джуліанн Мур / Julianne Moore, Джессіка Біл / Jessica Biel, Ензо Сіленті /Enzo Cilenti/, Торі Кіттлз /Tory Kittles/, Томас Кретшманн /Thomas Kretschmann/

Сюжет:
В Кріса Джонсона є таємниця, що псує його життя: він може передбачувати найближче майбутнє. Змучившись від безкінечної уваги уряду і медичних центрів, що наманаються розгадати природу його дивних можливостей, Кріс лягає на дно. Під вигаданим іменем він працює в Лас-Вегасі, де розважає публіку дешевими фокусами. Але коли група терористів загрожує Лос-Анджелесу, спеціальному агенту Келлі Ферріс знадобляться всі сили, щоб розшукати Кріса і переконати його допомогти відвернути катастрофу...


Тривалість: 01:36:11
Якість: 1080p
Відео:
кодек:
розмір кадру: 1920х796
бітрейт: 16.4 Мб/с

Аудіо # 1:
мова: українська
переклад: багатоголосий закадровий
кодек: 5.1
бітрейт: 384 кб/с

Аудіо # 2:
мова: українська
переклад: двоголосий закадровий
кодек: 5.1
бітрейт: 384 кб/с

Аудіо # 3:
мова: англійська
переклад: оригінал
кодек: 5.1
бітрейт: 1509 кб/с

Субтитри:
мова: українська
тип: програмні (м'які)
формат: *.srt

Субтитри:
мова: англійська
тип: програмні (м'які)
формат: *.srt
Info
General
Unique ID : 186138215075412012838567569699650956239 (0x8C08EA8D732684EB97327405B1D06BCF)
Format :
Format version : Version 4 / Version 2
File size : 12.8 GiB
Duration : 1 h 36 min
Overall bit rate : 19.1 Mb/s
Encoded date : UTC 2018-09-04 16:14:05
Writing application : v6.1.0 ('Old Devil') built on Mar 4 2013 09:10:42
Writing library : libebml v1.3.0 + v1.4.0

Video
ID : 1
Format : AVC
Format/Info : Advanced Video Codec
Format profile : [email protected]
Format settings : CABAC / 5 Ref Frames
Format settings, CABAC : Yes
Format settings, ReFrames : 5 frames
Codec ID : V_MPEG4/ISO/AVC
Duration : 1 h 36 min
Bit rate : 16.4 Mb/s
Width : 1 920 pixels
Height : 796 pixels
Display aspect ratio : 2.40:1
Frame rate mode : Constant
Frame rate : 23.976 (24000/1001) FPS
Color space : YUV
Chroma subsampling : 4:2:0
Bit depth : 8 bits
Scan type : Progressive
Bits/(Pixel*Frame) : 0.449
Stream size : 11.0 GiB (86%)
Writing library : core 116 r2074 2641b9e
Encoding settings : cabac=1 / ref=5 / deblock=1:-3:-3 / analyse=0x3:0x133 / me=umh / subme=10 / psy=1 / psy_rd=1.00:0.00 / mixed_ref=1 / me_range=24 / chroma_me=1 / trellis=2 / 8x8dct=1 / cqm=0 / deadzone=21,11 / fast_pskip=0 / chroma_qp_offset=-2 / threads=6 / sliced_threads=0 / nr=0 / decimate=1 / interlaced=0 / bluray_compat=0 / constrained_intra=0 / bframes=8 / b_pyramid=2 / b_adapt=2 / b_bias=0 / direct=3 / weightb=1 / open_gop=0 / weightp=2 / keyint=250 / keyint_min=23 / scenecut=40 / intra_refresh=0 / rc_lookahead=60 / rc=crf / mbtree=0 / crf=18.0 / qcomp=0.65 / qpmin=0 / qpmax=69 / qpstep=4 / vbv_maxrate=50000 / vbv_bufsize=62500 / crf_max=0.0 / nal_hrd=none / ip_ratio=1.40 / pb_ratio=1.30 / aq=1:0.80
Language : English
Default : Yes
Forced : No
Color range : Limited
Matrix coefficients : BT.709

Audio #1
ID : 2
Format : AC-3
Format/Info : Audio Coding 3
Codec ID : A_AC3
Duration : 1 h 36 min
Bit rate mode : Constant
Bit rate : 384 kb/s
Channel(s) : 6 channels
Channel positions : Front: L C R, Side: L R, LFE
Sampling rate : 48.0 kHz
Frame rate : 31.250 FPS (1536 SPF)
Bit depth : 16 bits
Compression mode : Lossy
Stream size : 264 MiB (2%)
Title : UKR (ТРК "Україна")
Language : Ukrainian
Service kind : Complete Main
Default : Yes
Forced : Yes

Audio #2
ID : 3
Format : AC-3
Format/Info : Audio Coding 3
Codec ID : A_AC3
Duration : 1 h 36 min
Bit rate mode : Constant
Bit rate : 384 kb/s
Channel(s) : 6 channels
Channel positions : Front: L C R, Side: L R, LFE
Sampling rate : 48.0 kHz
Frame rate : 31.250 FPS (1536 SPF)
Bit depth : 16 bits
Compression mode : Lossy
Stream size : 264 MiB (2%)
Title : UKR (2+2)
Language : Ukrainian
Service kind : Complete Main
Default : No
Forced : No

Audio #3
ID : 4
Format :
Format/Info : Digital Theater Systems
Codec ID : A_DTS
Duration : 1 h 36 min
Bit rate mode : Constant
Bit rate : 1 509 kb/s
Channel(s) : 6 channels
Channel positions : Front: L C R, Side: L R, LFE
Sampling rate : 48.0 kHz
Frame rate : 93.750 FPS (512 SPF)
Bit depth : 24 bits
Compression mode : Lossy
Stream size : 1.01 GiB (8%)
Language : English
Default : No
Forced : No

Text #1
ID : 5
Format : UTF-8
Codec ID : S_TEXT/UTF8
Codec ID/Info : UTF-8 Plain Text
Title : UKR
Language : Ukrainian
Default : Yes
Forced : No

Text #2
ID : 6
Format : UTF-8
Codec ID : S_TEXT/UTF8
Codec ID/Info : UTF-8 Plain Text
Language : English
Default : No
Forced : No

Menu
00:00:00.000 : en:Chapter 1
00:02:28.773 : en:Chapter 2
00:10:06.314 : en:Chapter 3
00:11:45.955 : en:Chapter 4
00:16:14.974 : en:Chapter 5
00:20:14.421 : en:Chapter 6
00:21:02.678 : en:Chapter 7
00:27:54.881 : en:Chapter 8
00:30:17.524 : en:Chapter 9
00:36:18.634 : en:Chapter 10
00:42:12.613 : en:Chapter 11
00:48:20.772 : en:Chapter 12
00:56:10.617 : en:Chapter 13
01:02:01.092 : en:Chapter 14
01:11:04.927 : en:Chapter 15
01:19:16.877 : en:Chapter 16
01:26:07.078 : en:Chapter 17
01:30:36.681 : en:Chapter 18
Скріншоти









За українські доріжки подяка п.: drakon87, xSlim, _oles
За постер подяка п. Віктор
Особиста подяка пану denixx за надану матеріальну допомогу на підтримку цього і майбутніх релізів.
Джерело:


 Трекер:    Зареєстрований   

Завантажити / скачати фільм українською



відео для новачків



 Зареєстрований:   2018-09-04 19:32
 Розмір:   12.83 GB 
 Оцінка фільму:   9.3/10 (Голосів: 4)
   
Інші релізи
   Пророк / Next (2007) 720p 2xUkr/Eng | Sub Ukr/Eng igor911  4 / 0   6.27 GB   2015-04-01 10:37 
   Пророк / Next (2007) 2xUkr/Eng | Sub Ukr/Eng _oles  5 / 1   1.97 GB   2013-07-13 21:25 
   Пророк / The Next (2007) KevinCostner  4 / 0   1.47 GB   2009-06-27 18:25 
Ваш часовий пояс: GMT + 2 Години

Нова тема   Відповісти