Снігова королева 3: Вогонь і лід / The Snow Queen 3 (2016) 1080p Ukr/Eng

Нові коментарі

Нова тема   Відповісти
Автор Повідомлення
staf777 
Відео Гуртом - підтримка та поширення
Відео Гуртом - підтримка та поширення


З нами з: 16.11.16
Востаннє: 08.03.21
Повідомлень: 5117

2018-09-04 16:46  
Снігова королева 3: Вогонь і лід / The Snow Queen 3 (2016) 1080p Ukr/Eng



Жанр: комедія, мультфільм, пригоди, сімейний
Країна: Росія



Кінокомпанія: 3Beep,Wizart Animation
Режисер: Олексій Ціцілін
Актори: Наталія Бистрова, Філіп Лєбєдєв, Олександр Груздєв, Ольга Шорохова

Сюжет:
Рідкісний дар вплутуватися у всілякі неприємності — їх сімейна риса, та й що взяти з тих, хто виріс серед снігів у компанії тролів. Але подорослішавши, Кай і Герда виходять на новий рівень — тепер вони стануть винуватцями катастрофи світового масштабу...


Тривалість: 01:29:10
Якість: 1080p

Відео:
кодек:
розмір кадру: 1920x808
бітрейт: 9017 кб/с

Аудіо # 1:
мова: українська
переклад: професійний дубльований
кодек: 5.1
бітрейт: 1509 кб/с

Аудіо # 2:
мова: українська
переклад: професійний дубльований
кодек: 5.1
бітрейт: 640 кб/с

Аудіо # 3:
мова: англійська
переклад: оригінал
кодек: 5.1
бітрейт: 1509 кб/с


Info
Код:

General
Unique ID                   : 23833899019764210518302913904980309475 (0x11EE3DF27DA790C5478F83B73F78B5E3)
Complete name               : S:\Мультфільми в HD\The Snow Queen 3 (2016) 1080p [UKR_ENG] [Hurtom].
Format                      :
Format version              : Version 4 / Version 2
File size                   : 7.90 GiB
Duration                    : 1 h 29 min
Overall bit rate            : 12.7 Mb/s
Movie name                  : The Snow Queen 3 (2016) 1080p [UKR_ENG] [Hurtom]
Encoded date                : UTC 2018-09-04 16:41:32
Writing application         : v24.0.0 ('Beyond The Pale') 64-bit
Writing library             : libebml v1.3.6 + v1.4.9
Cover                       : Yes
Attachments                 : cover.jpg

Video
ID                          : 1
Format                      : AVC
Format/Info                 : Advanced Video Codec
Format profile              : [email protected]
Format settings             : CABAC / 5 Ref Frames
Format settings, CABAC      : Yes
Format settings, ReFrames   : 5 frames
Codec ID                    : V_MPEG4/ISO/AVC
Duration                    : 1 h 29 min
Bit rate                    : 9 017 kb/s
Width                       : 1 920 pixels
Height                      : 808 pixels
Display aspect ratio        : 2.40:1
Frame rate mode             : Constant
Frame rate                  : 23.976 (23976/1000) FPS
Original frame rate         : 23.976 (24000/1001) FPS
Color space                 : YUV
Chroma subsampling          : 4:2:0
Bit depth                   : 8 bits
Scan type                   : Progressive
Bits/(Pixel*Frame)          : 0.242
Stream size                 : 5.62 GiB (71%)
Writing library             : core 152 r2851 ba24899
Encoding settings           : cabac=1 / ref=5 / deblock=1:1:1 / analyse=0x3:0x133 / me=umh / subme=8 / psy=1 / psy_rd=1.00:0.00 / mixed_ref=1 / me_range=16 / chroma_me=1 / trellis=1 / 8x8dct=1 / cqm=0 / deadzone=21,11 / fast_pskip=0 / chroma_qp_offset=-2 / threads=16 / lookahead_threads=2 / sliced_threads=0 / nr=0 / decimate=1 / interlaced=0 / bluray_compat=0 / constrained_intra=0 / bframes=3 / b_pyramid=2 / b_adapt=2 / b_bias=0 / direct=3 / weightb=1 / open_gop=0 / weightp=2 / keyint=250 / keyint_min=23 / scenecut=40 / intra_refresh=0 / rc_lookahead=50 / rc=2pass / mbtree=1 / bitrate=9017 / ratetol=1.0 / qcomp=0.60 / qpmin=0 / qpmax=69 / qpstep=4 / cplxblur=20.0 / qblur=0.5 / ip_ratio=1.40 / aq=1:1.00
Language                    : English
Default                     : Yes
Forced                      : No

Audio #1
ID                          : 2
Format                      :
Format/Info                 : Digital Theater Systems
Codec ID                    : A_DTS
Duration                    : 1 h 29 min
Bit rate mode               : Constant
Bit rate                    : 1 509 kb/s
Channel(s)                  : 6 channels
Channel positions           : Front: L C R, Side: L R, LFE
Sampling rate               : 48.0 kHz
Frame rate                  : 93.750 FPS (512 SPF)
Bit depth                   : 24 bits
Compression mode            : Lossy
Stream size                 : 962 MiB (12%)
Title                       : 5.1 @ 1536 kbps
Language                    : Ukrainian
Default                     : Yes
Forced                      : Yes

Audio #2
ID                          : 3
Format                      : AC-3
Format/Info                 : Audio Coding 3
Codec ID                    : A_AC3
Duration                    : 1 h 29 min
Bit rate mode               : Constant
Bit rate                    : 640 kb/s
Channel(s)                  : 6 channels
Channel positions           : Front: L C R, Side: L R, LFE
Sampling rate               : 48.0 kHz
Frame rate                  : 31.250 FPS (1536 SPF)
Bit depth                   : 16 bits
Compression mode            : Lossy
Stream size                 : 408 MiB (5%)
Title                       : 5.1 @ 640 kbps
Language                    : Ukrainian
Service kind                : Complete Main
Default                     : No
Forced                      : No

Audio #3
ID                          : 4
Format                      :
Format/Info                 : Digital Theater Systems
Codec ID                    : A_DTS
Duration                    : 1 h 29 min
Bit rate mode               : Constant
Bit rate                    : 1 509 kb/s
Channel(s)                  : 6 channels
Channel positions           : Front: L C R, Side: L R, LFE
Sampling rate               : 48.0 kHz
Frame rate                  : 93.750 FPS (512 SPF)
Bit depth                   : 16 bits
Compression mode            : Lossy
Stream size                 : 962 MiB (12%)
Language                    : English
Default                     : No
Forced                      : No

Menu
00:00:00.000                : en:00:00:00.000
00:07:50.095                : en:00:07:50.095
00:15:37.687                : en:00:15:37.687
00:21:28.704                : en:00:21:28.704
00:28:56.735                : en:00:28:56.735
00:37:13.148                : en:00:37:13.148
00:43:49.669                : en:00:43:49.669
00:50:59.848                : en:00:50:59.848
01:00:15.612                : en:01:00:15.612
01:05:31.886                : en:01:05:31.886
01:14:14.659                : en:01:14:14.659
01:20:08.178                : en:01:20:08.178

Подяка пану AngryBirdsUA за доріжку та пану Hanway за синхронізацію.

Джерело:
Особиста оцінка: 0 - не дивився


 Трекер:    Зареєстрований   

Завантажити / скачати мультфільм українською



відео для новачків



 Зареєстрований:   2018-09-04 19:16
 Розмір:   7.9 GB 
 Оцінка мультфільму:   3.6/10 (Голосів: 17)
   
bot 
робот


З нами з: 30.09.07
Востаннє: 26.05.05
Повідомлень: 27338

2018-09-04 19:15  
Тему перенесено з Анонси релізів до форуму Фільми в HD


staf777

bot 
робот


З нами з: 30.09.07
Востаннє: 26.05.05
Повідомлень: 27338

2018-09-04 19:16  
Тему перенесено з Фільми в HD до форуму Мультфільми в HD


staf777

strannikosho_trek 
Частий відвідувач


З нами з: 29.05.14
Востаннє: 06.03.21
Повідомлень: 34

2018-09-05 21:32  
Геть рюське гуано з українських екранів!
Ваш часовий пояс: GMT + 2 Години

Нова тема   Відповісти