Дзеркала [Розширена версія] / Mirrors [Unrated] (2008) 1080p H.265 Ukr/Eng | Sub Ukr/Eng

Нові коментарі

Нова тема   Відповісти
Останній раз роздавалося Timm (2018-12-18)
Автор Повідомлення
-Star-Lord- 
VIP


З нами з: 09.08.18
Востаннє: 19.12.18
Повідомлень: 355

2018-09-04 14:37  
Дзеркала [Розширена версія] / Mirrors [Unrated] (2008) 1080p H.265 Ukr/Eng | Sub Ukr/Eng

Дзеркала [Розширена версія] / Mirrors [Unrated] (2008) 1080p H.265 Ukr/Eng | Sub Ukr/Eng


Жанр: жахи, трилер, детектив
Країна: США, Румунія



Кінокомпанія: Castel Film Romania
Режисер: Олександр Аджа
Актори: Кіфер Сазерленд, Паула Паттон, Камерон Бойс, Еріка Глюк, Емі Смарт, Мері Беті Пейл

Сюжет:
Бен Карсон знавав кращі часи. Вже пройшов майже рік з тих пір, як неврівноваженого детектива усунули від роботи в Поліцейському управлінні м. Нью-Йорка за вбивство іншого співробітника спецслужби, нещасний випадок, який не тільки коштував йому роботи, але і збудив у ньому тягу до алкоголю і агресивності, із-за чого дружина і діти віддалилися від нього, а сам він знайшов притулок на дивані в квартирі своєї сестри в Куїнс. Втративши надію повернутися до нормального життя і возз'єднатися з сім'єю, Карсон наймається на роботу нічним сторожем вигорілих руїн універмагу “Mayflower”. Те, що колись було символом процвітання і розкоші, тепер поволі руйнується в темноті, як загниваючий корабель-примара, розорений гігантською пожежею, що поглинула безліч безневинних життів. Коли Карсон обходить дозором свої володіння, обвуглені розвалини універмагу, він починає помічати щось зловісне в декоративних дзеркалах, що прикрашають стіни “Mayflower”.


Тривалість: 01:51:22
Якість:
Відео:
кодек: H.265 (HEVC)
розмір кадру: 1920 х 800
бітрейт: 10.7 Mb/s
бітова глибина: 10 біт
Увага! Перед завантаженням переконайтесь, що ваш пристрій відтворення (та/або ПЗ) підтримує H.265 (HEVC)

Аудіо # 1:
мова: українська
переклад: професійний дубльований
кодек: 5.1
бітрейт: 384 кб/с

Аудіо # 2:
мова: англійська
переклад: оригінал
кодек: 5.1
бітрейт: 384 кб/с

Субтитри # 1:
мова: українська
тип: програмні (м'які)
формат: *.srt

Субтитри # 2:
мова: англійська
тип: програмні (м'які)
формат: *.srt
Info
Код:
General
Unique ID                                : 327610389545578548804312983295953273488 (0xF67777474EC7AD8A139A0AD72E7D0290)
Complete name                            : F:\Video\Mirrors [Unrated] (2008) 1080p H.265 [UKR_ENG].
Format                                   :
Format version                           : Version 4 / Version 2
File size                                : 8.89 GiB
Duration                                 : 1 h 51 min
Overall bit rate                         : 11.4 Mb/s
Movie name                               : Mirrors [Unrated] (2008)
Encoded date                             : UTC 2018-09-03 08:03:38
Writing application                      : v20.0.0 ('I Am The Sun') 32-bit
Writing library                          : libebml v1.3.5 + v1.4.8
Cover                                    : Yes
Attachments                              : Cover.jpg

Video
ID                                       : 1
Format                                   : HEVC
Format/Info                              : High Efficiency Video Coding
Format profile                           : Main [email protected]@High
Codec ID                                 : V_MPEGH/ISO/HEVC
Duration                                 : 1 h 51 min
Bit rate                                 : 10.7 Mb/s
Width                                    : 1 920 pixels
Height                                   : 800 pixels
Display aspect ratio                     : 2.40:1
Frame rate mode                          : Constant
Frame rate                               : 23.976 (24000/1001) FPS
Color space                              : YUV
Chroma subsampling                       : 4:2:0
Bit depth                                : 10 bits
Bits/(Pixel*Frame)                       : 0.289
Stream size                              : 8.29 GiB (93%)
Writing library                          : x265 2.8+23-656b5b442f0b:[Windows][GCC 7.3.0][64 bit] 10bit
Encoding settings                        : cpuid=1176575 / frame-threads=4 / numa-pools=16 / wpp / no-pmode / no-pme / no-psnr / no-ssim / log-level=2 / input-csp=1 / input-res=1920x800 / interlace=0 / total-frames=0 / level-idc=51 / high-tier=1 / uhd-bd=0 / ref=5 / no-allow-non-conformance / no-repeat-headers / annexb / no-aud / no-hrd / info / hash=0 / no-temporal-layers / open-gop / min-keyint=23 / keyint=250 / gop-lookahead=0 / bframes=8 / b-adapt=2 / no-b-pyramid / bframe-bias=0 / rc-lookahead=40 / lookahead-slices=4 / scenecut=40 / radl=0 / no-intra-refresh / ctu=64 / min-cu-size=8 / no-rect / no-amp / max-tu-size=32 / tu-inter-depth=2 / tu-intra-depth=2 / limit-tu=4 / rdoq-level=2 / dynamic-rd=0.00 / no-ssim-rd / signhide / no-tskip / nr-intra=0 / nr-inter=0 / no-constrained-intra / strong-intra-smoothing / max-merge=3 / limit-refs=2 / limit-modes / me=3 / subme=7 / merange=64 / temporal-mvp / weightp / weightb / no-analyze-src-pics / deblock=-1:-1 / no-sao / no-sao-non-deblock / rd=6 / no-early-skip / rskip / no-fast-intra / no-tskip-fast / no-cu-lossless / b-intra / no-splitrd-skip / rdpenalty=0 / psy-rd=2.00 / psy-rdoq=1.00 / no-rd-refine / no-lossless / cbqpoffs=0 / crqpoffs=0 / rc=crf / crf=18.0 / qcomp=0.60 / qpstep=4 / stats-write=0 / stats-read=0 / vbv-maxrate=160000 / vbv-bufsize=160000 / vbv-init=0.9 / crf-max=0.0 / crf-min=0.0 / ipratio=1.10 / pbratio=1.10 / aq-mode=1 / aq-strength=0.70 / cutree / zone-count=0 / no-strict-cbr / qg-size=32 / no-rc-grain / qpmax=69 / qpmin=0 / no-const-vbv / sar=0 / overscan=0 / videoformat=5 / range=0 / colorprim=1 / transfer=1 / colormatrix=1 / chromaloc=0 / display-window=0 / max-cll=0,0 / min-luma=0 / max-luma=1023 / log2-max-poc-lsb=8 / vui-timing-info / vui-hrd-info / slices=1 / no-opt-qp-pps / no-opt-ref-list-length-pps / no-multi-pass-opt-rps / scenecut-bias=0.05 / no-opt-cu-delta-qp / no-aq-motion / no-hdr / no-hdr-opt / no-dhdr10-opt / no-idr-recovery-sei / analysis-reuse-level=5 / scale-factor=0 / refine-intra=0 / refine-inter=0 / refine-mv=0 / no-limit-sao / ctu-info=0 / no-lowpass-dct / refine-mv-type=0 / copy-pic=1 / max-ausize-factor=1.0 / no-dynamic-refine / no-single-sei
Default                                  : Yes
Forced                                   : Yes
Color range                              : Limited
Color primaries                          : BT.709
Transfer characteristics                 : BT.709
Matrix coefficients                      : BT.709

Audio #1
ID                                       : 2
Format                                   : AC-3
Format/Info                              : Audio Coding 3
Codec ID                                 : A_AC3
Duration                                 : 1 h 51 min
Bit rate mode                            : Constant
Bit rate                                 : 384 kb/s
Channel(s)                               : 6 channels
Channel positions                        : Front: L C R, Side: L R, LFE
Sampling rate                            : 48.0 kHz
Frame rate                               : 31.250 FPS (1536 SPF)
Bit depth                                : 16 bits
Compression mode                         : Lossy
Stream size                              : 306 MiB (3%)
Title                                    : [UA-DUB 5.1 @ 384 kbps]
Language                                 : Ukrainian
Service kind                             : Complete Main
Default                                  : Yes
Forced                                   : Yes

Audio #2
ID                                       : 3
Format                                   : AC-3
Format/Info                              : Audio Coding 3
Codec ID                                 : A_AC3
Duration                                 : 1 h 51 min
Bit rate mode                            : Constant
Bit rate                                 : 384 kb/s
Channel(s)                               : 6 channels
Channel positions                        : Front: L C R, Side: L R, LFE
Sampling rate                            : 48.0 kHz
Frame rate                               : 31.250 FPS (1536 SPF)
Bit depth                                : 16 bits
Compression mode                         : Lossy
Stream size                              : 306 MiB (3%)
Title                                    : 5.1 @ 384 kbps
Language                                 : English
Service kind                             : Complete Main
Default                                  : No
Forced                                   : No

Text #1
ID                                       : 4
Format                                   : UTF-8
Codec ID                                 : S_TEXT/UTF8
Codec ID/Info                            : UTF-8 Plain Text
Duration                                 : 1 h 45 min
Bit rate                                 : 54 b/s
Count of elements                        : 812
Stream size                              : 41.8 KiB (0%)
Language                                 : Ukrainian
Default                                  : No
Forced                                   : No

Text #2
ID                                       : 5
Format                                   : UTF-8
Codec ID                                 : S_TEXT/UTF8
Codec ID/Info                            : UTF-8 Plain Text
Duration                                 : 1 h 41 min
Bit rate                                 : 39 b/s
Count of elements                        : 806
Stream size                              : 29.1 KiB (0%)
Language                                 : English
Default                                  : No
Forced                                   : No

Menu
00:00:00.000                             : en:Bad Reflections
00:03:52.565                             : en:Main Titles
00:05:45.094                             : en:The Ex-Cop
00:07:26.237                             : en:The Mayflower
00:11:20.513                             : en:Another Chance
00:15:38.270                             : en:The Open Door
00:21:44.469                             : en:Man In The Mirror
00:23:34.454                             : en:Reflections Of Hell
00:33:31.718                             : en:Nightmares
00:36:26.267                             : en:Package From Gary
00:39:24.278                             : en:The Morgue
00:44:32.586                             : en:Esseker
00:51:03.518                             : en:Blood Bath
00:53:23.950                             : en:The Mirrors Killed Them
00:56:35.934                             : en:Break Down
01:01:58.131                             : en:Behind The Wall
01:06:07.004                             : en:Slaughterhouse
01:08:22.389                             : en:The Esseker File
01:10:34.855                             : en:Something In The Mirror
01:14:10.487                             : en:Looking For Anna
01:19:32.559                             : en:The Soul Collector
01:24:26.311                             : en:House Of Mirrors
01:29:28.154                             : en:He Wants To Play
01:32:21.619                             : en:It's Waiting
01:36:07.303                             : en:Repossessed
01:38:25.232                             : en:The Demon Within
01:42:42.990                             : en:Into The Mirror
01:47:23.144                             : en:End Titles
01:51:21.966                             : en:
Скріншоти




Джерело:
Особиста оцінка: 10 - без зайвих вагань рекомендую всім!


 Трекер:    Зареєстрований   

Завантажити / скачати фільм українською



відео для новачків



 Зареєстрований:   2018-09-04 14:37
 Розмір:   8.89 GB 
 Оцінка фільму:   10/10 (Голосів: 4)
   
Ваш часовий пояс: GMT + 2 Години

Нова тема   Відповісти