Амелі / Неймовірна доля Амелі Пулен / Le Fabuleux destin d'Amelie Poulain (2001) mini 1080p H.265 4xUkr/Fre | Sub Eng

Нові коментарі

Нова тема   Відповісти
Автор Повідомлення
Anonymous 







2018-09-04 14:28  
Амелі / Неймовірна доля Амелі Пулен / Le Fabuleux destin d'Amelie Poulain (2001) mini 1080p H.265 4xUkr/Fre | Sub Eng

Амелі / Неймовірна доля Амелі Пулен / Le Fabuleux destin d'Amelie Poulain (2001) mini 1080p H.265 4xUkr/Fre | Sub Eng


Жанр: комедія, мелодрама
Країна: Франція, Німеччина



Кінокомпанія: Claudie Ossard Productions, Union Générale Cinématographique (UGC), Victoires Productions
Режисер: Жан-П'єрр Жене / Jean-Pierre Jeunet
Актори: Одрі Тоту / Audrey Tautou, Матьє Кассовіц / Mathieu Kassovitz, Рюфюс / Rufus, Іоланда Моро / Yolande Moreau, Ізабель Нанті / Isabelle Nanty, Моріс Бенішу / Maurice Bénichou, Домінік Піньон / Dominique Pinon та інші

Сюжет:
Чи знаєте ви, що всі події, що відбуваються в нашому світі, навіть найбільш незначні, взаємозв'язані найдивовижнішим і чудернацьким чином?
Як політ крихітної мухи може викликати десь далеко могутній ураган, так і дивні, і на перший погляд, незрозумілі вчинки тихої і самотньої дівчини, що живе в світі своїх фантазій, можуть назавжди змінити життя абсолютно різних людей, подарувавши їм щастя і розфарбувавши навколишній світ яскравими, запаморочливими фарбами. Цю дівчину звуть Амелі Пулен.


Тривалість: 02:02:02
Якість: mini
Відео:
кодек: H.265 (HEVC)
розмір кадру: 1920 х 812
бітрейт: 3 490 кб/с
бітова глибина: 10 біт
Увага! Перед завантаженням переконайтесь, що ваш пристрій відтворення (та/або ПЗ) підтримує H.265 (HEVC)

Аудіо # 1:
мова: українська
переклад: багатоголосий закадровий
кодек: 2.0
бітрейт: 192 кб/с

Аудіо # 2:
мова: українська
переклад: двоголосий закадровий
кодек: 2.0
бітрейт: 192 кб/с

Аудіо # 3:
мова: українська
переклад: багатоголосий закадровий
кодек: 2.0
бітрейт: 192 кб/с

Аудіо # 4:
мова: українська
переклад: багатоголосий закадровий
кодек: 2.0
бітрейт: 192 кб/с

Аудіо # 5:
мова: французька
переклад: оригінал
кодек: 5.1
бітрейт: 325 кб/с

Субтитри:
мова: англійська
тип: програмні (м'які)
формат: *.VobSub
Info
Код:
General
Unique ID                                : 20954889505643925689294798278378887840 (0xFC3C3D1AAEB8DC100D986F11E6F9AA0)
Complete name                            : F:\Video\Le Fabuleux destin d'Amelie Poulain (2001) 1080p H.265 [4xUKR_FRE].
Format                                   :
Format version                           : Version 4 / Version 2
File size                                : 3.91 GiB
Duration                                 : 2 h 2 min
Overall bit rate                         : 4 589 kb/s
Movie name                               : Le Fabuleux destin d'Amelie Poulain (2001)
Encoded date                             : UTC 2018-09-03 18:29:47
Writing application                      : v20.0.0 ('I Am The Sun') 32-bit
Writing library                          : libebml v1.3.5 + v1.4.8
Cover                                    : Yes
Attachments                              : Cover.jpg

Video
ID                                       : 1
Format                                   : HEVC
Format/Info                              : High Efficiency Video Coding
Format profile                           : Main [email protected]@Main
Codec ID                                 : V_MPEGH/ISO/HEVC
Duration                                 : 2 h 2 min
Bit rate                                 : 3 490 kb/s
Width                                    : 1 920 pixels
Height                                   : 812 pixels
Display aspect ratio                     : 2.35:1
Frame rate mode                          : Constant
Frame rate                               : 23.976 (24000/1001) FPS
Color space                              : YUV
Chroma subsampling                       : 4:2:0
Bit depth                                : 10 bits
Bits/(Pixel*Frame)                       : 0.093
Stream size                              : 2.98 GiB (76%)
Writing library                          : x265 2.4+22-c102c809fc4f:[Windows][GCC 6.3.0][64 bit] 10bit
Encoding settings                        : cpuid=1173503 / frame-threads=3 / numa-pools=8 / wpp / no-pmode / no-pme / no-psnr / no-ssim / log-level=2 / input-csp=1 / input-res=1920x812 / interlace=0 / total-frames=175556 / level-idc=0 / high-tier=1 / uhd-bd=0 / ref=4 / no-allow-non-conformance / no-repeat-headers / annexb / no-aud / no-hrd / info / hash=0 / no-temporal-layers / open-gop / min-keyint=23 / keyint=250 / bframes=4 / b-adapt=2 / b-pyramid / bframe-bias=0 / rc-lookahead=25 / lookahead-slices=4 / scenecut=40 / no-intra-refresh / ctu=64 / min-cu-size=8 / rect / no-amp / max-tu-size=32 / tu-inter-depth=1 / tu-intra-depth=1 / limit-tu=0 / rdoq-level=2 / dynamic-rd=0.00 / no-ssim-rd / signhide / no-tskip / nr-intra=0 / nr-inter=0 / no-constrained-intra / strong-intra-smoothing / max-merge=3 / limit-refs=3 / limit-modes / me=3 / subme=3 / merange=57 / temporal-mvp / weightp / no-weightb / no-analyze-src-pics / deblock=0:0 / sao / no-sao-non-deblock / rd=4 / no-early-skip / rskip / no-fast-intra / no-tskip-fast / no-cu-lossless / no-b-intra / rdpenalty=0 / psy-rd=2.00 / psy-rdoq=1.00 / no-rd-refine / analysis-mode=0 / no-lossless / cbqpoffs=0 / crqpoffs=0 / rc=abr / bitrate=3492 / qcomp=0.60 / qpstep=4 / stats-write=0 / stats-read=2 / cplxblur=20.0 / qblur=0.5 / ipratio=1.40 / pbratio=1.30 / aq-mode=2 / aq-strength=1.00 / cutree / zone-count=0 / no-strict-cbr / qg-size=32 / no-rc-grain / qpmax=69 / qpmin=0 / sar=0 / overscan=0 / videoformat=5 / range=0 / colorprim=2 / transfer=2 / colormatrix=2 / chromaloc=0 / display-window=0 / max-cll=0,0 / min-luma=0 / max-luma=1023 / log2-max-poc-lsb=8 / vui-timing-info / vui-hrd-info / slices=1 / opt-qp-pps / opt-ref-list-length-pps / no-multi-pass-opt-rps / scenecut-bias=0.05 / no-opt-cu-delta-qp / no-aq-motion / no-hdr / no-hdr-opt / no-dhdr10-opt / refine-level=5 / no-limit-sao / ctu-info=0
Default                                  : Yes
Forced                                   : No

Audio #1
ID                                       : 2
Format                                   : AC-3
Format/Info                              : Audio Coding 3
Codec ID                                 : A_AC3
Duration                                 : 2 h 1 min
Bit rate mode                            : Constant
Bit rate                                 : 192 kb/s
Channel(s)                               : 2 channels
Channel positions                        : Front: L R
Sampling rate                            : 48.0 kHz
Frame rate                               : 31.250 FPS (1536 SPF)
Bit depth                                : 16 bits
Compression mode                         : Lossy
Delay relative to video                  : 21 s 500 ms
Stream size                              : 167 MiB (4%)
Title                                    : Cine+
Language                                 : Ukrainian
Service kind                             : Complete Main
Default                                  : Yes
Forced                                   : No

Audio #2
ID                                       : 3
Format                                   : AC-3
Format/Info                              : Audio Coding 3
Codec ID                                 : A_AC3
Duration                                 : 2 h 1 min
Bit rate mode                            : Constant
Bit rate                                 : 192 kb/s
Channel(s)                               : 2 channels
Channel positions                        : Front: L R
Sampling rate                            : 48.0 kHz
Frame rate                               : 31.250 FPS (1536 SPF)
Bit depth                                : 16 bits
Compression mode                         : Lossy
Delay relative to video                  : 21 s 500 ms
Stream size                              : 167 MiB (4%)
Title                                    : TET
Language                                 : Ukrainian
Service kind                             : Complete Main
Default                                  : No
Forced                                   : No

Audio #3
ID                                       : 4
Format                                   : AC-3
Format/Info                              : Audio Coding 3
Codec ID                                 : A_AC3
Duration                                 : 2 h 1 min
Bit rate mode                            : Constant
Bit rate                                 : 192 kb/s
Channel(s)                               : 2 channels
Channel positions                        : Front: L R
Sampling rate                            : 48.0 kHz
Frame rate                               : 31.250 FPS (1536 SPF)
Bit depth                                : 16 bits
Compression mode                         : Lossy
Delay relative to video                  : 21 s 500 ms
Stream size                              : 167 MiB (4%)
Title                                    : NLO TV
Language                                 : Ukrainian
Service kind                             : Complete Main
Default                                  : No
Forced                                   : No

Audio #4
ID                                       : 5
Format                                   : AC-3
Format/Info                              : Audio Coding 3
Codec ID                                 : A_AC3
Duration                                 : 2 h 1 min
Bit rate mode                            : Constant
Bit rate                                 : 192 kb/s
Channel(s)                               : 2 channels
Channel positions                        : Front: L R
Sampling rate                            : 48.0 kHz
Frame rate                               : 31.250 FPS (1536 SPF)
Bit depth                                : 16 bits
Compression mode                         : Lossy
Delay relative to video                  : 21 s 500 ms
Stream size                              : 167 MiB (4%)
Title                                    : Novy Kanal
Language                                 : Ukrainian
Service kind                             : Complete Main
Default                                  : No
Forced                                   : No

Audio #5
ID                                       : 6
Format                                   :
Format/Info                              : Advanced Audio Codec
Format profile                           : LC
Codec ID                                 : A_AAC-2
Duration                                 : 2 h 2 min
Bit rate                                 : 325 kb/s
Channel(s)                               : 6 channels
Channel positions                        : Front: L C R, Side: L R, LFE
Sampling rate                            : 48.0 kHz
Frame rate                               : 46.875 FPS (1024 SPF)
Compression mode                         : Lossy
Delay relative to video                  : 20 ms
Stream size                              : 283 MiB (7%)
Title                                    : Original
Language                                 : French
Default                                  : No
Forced                                   : No

Text
ID                                       : 7
Format                                   : VobSub
Muxing mode                              : zlib
Codec ID                                 : S_VOBSUB
Codec ID/Info                            : Picture based subtitle format used on DVDs
Duration                                 : 1 h 56 min
Bit rate                                 : 8 272 b/s
Count of elements                        : 1546
Stream size                              : 6.87 MiB (0%)
Language                                 : English
Default                                  : Yes
Forced                                   : No

Menu
00:00:00.000                             : en:Chapter 01
00:09:12.885                             : en:Chapter 02
00:14:22.653                             : en:Chapter 03
00:21:38.547                             : en:Chapter 04
00:30:48.513                             : en:Chapter 05
00:39:06.969                             : en:Chapter 06
00:47:42.901                             : en:Chapter 07
00:57:27.944                             : en:Chapter 08
01:05:12.116                             : en:Chapter 09
01:11:30.369                             : en:Chapter 10
01:17:28.393                             : en:Chapter 11
01:25:36.798                             : en:Chapter 12
01:32:42.974                             : en:Chapter 13
01:39:07.650                             : en:Chapter 14
01:45:19.354                             : en:Chapter 15
01:51:47.701                             : en:Chapter 16
Скріншоти




Джерело:
Особиста оцінка: 10 - без зайвих вагань рекомендую всім!
ЗАЛИШАЙТЕСЬ ЯКОМОГА ДОВШЕ НА РОЗДАЧІ!
ЗАВАНТАЖИВ САМ - ДАЙ ЗАВАНТАЖИТИ ІНШИМ


Срібний реліз (на рейтинг впливає 50% завантаженого)
 Трекер:    Зареєстрований   

Завантажити / скачати фільм українською



відео для новачків



 Зареєстрований:   2018-09-04 14:28
 Розмір:   3.91 GB 
 Оцінка фільму:   9.9/10 (Голосів: 9)
   
dzvinochok 
Новенький


З нами з: 30.06.12
Востаннє: 02.12.19
Повідомлень: 9

2018-11-01 18:31  
дякую.
Dan_92 
Новенький


З нами з: 09.12.08
Востаннє: 07.11.19
Повідомлень: 9

2019-02-15 05:22  
Народ, приєднуйтесь до роздачі ... Хочу скачати )))))

Дякую! ))))

Ваш часовий пояс: GMT + 2 Години

Нова тема   Відповісти