Чарівна країна / Finding Neverland (2004) 1080p 2xUkr/Eng | Sub Eng

Нові коментарі

Нова тема   Відповісти
Автор Повідомлення
Anonymous 







2018-09-04 12:43  
Чарівна країна / Finding Neverland (2004) 1080p 2xUkr/Eng | Sub Eng

Чарівна країна / Finding Neverland (2004) 1080p 2xUkr/Eng | Sub Eng


Жанр: біографічний, драма, сімейний
Країна: США



Кінокомпанія: Dimension Films, Mandeville Films, Gold/Miller Productions
Режисер: Марк Форстер
Актори: Джонні Депп, Кейт Вінслет, Джулі Крісті, Рада Мітчел, Дастін Гоффман, Фредді Гаймор, Джо Просперо, Нік Рауд, Люк Спілл, Ієн Харт

Сюжет:
Письменник-невдаха Дж. Метью Баррі не підкоряється законам консервативного Лондона і стає другом самотньої вдови, а також прийомним батьком її чотирьох маленьких синів. Нова сім'я дарує натхнення: письменник створює дитячого героя Пітера Пeна і чудову казку про дітей, які не хочуть дорослішати.


Тривалість: 01:41:05
Якість: 1080p
Відео:
кодек:
розмір кадру: 1920х816
бітрейт: 9898 кб/с

Аудіо # 1:
мова: українська
переклад: двоголосий закадровий
кодек: 5.1
бітрейт: 448 кб/с

Аудіо # 2:
мова: українська
переклад: двоголосий закадровий
кодек: 5.1
бітрейт: 448 кб/с

Аудіо # 3:
мова: англійська
переклад: оригінал
кодек: 5.1
бітрейт: 640 кб/с

Субтитри:
мова: англійська
тип: програмні (м'які)
формат: *.srt
Info
General
Unique ID : 248342236025724925248280692453069897495 (0xBAD4F991DA93B88486E43B19115D3F17)
Format :
Format version : Version 4 / Version 2
File size : 8.07 GiB
Duration : 1 h 41 min
Overall bit rate : 11.4 Mb/s
Encoded date : UTC 2018-09-04 10:36:20
Writing application : v6.1.0 ('Old Devil') built on Mar 4 2013 09:10:42
Writing library : libebml v1.3.0 + v1.4.0

Video
ID : 1
Format : AVC
Format/Info : Advanced Video Codec
Format profile : [email protected]
Format settings : CABAC / 5 Ref Frames
Format settings, CABAC : Yes
Format settings, ReFrames : 5 frames
Codec ID : V_MPEG4/ISO/AVC
Duration : 1 h 41 min
Bit rate : 9 898 kb/s
Width : 1 920 pixels
Height : 816 pixels
Display aspect ratio : 2.35:1
Frame rate mode : Constant
Frame rate : 23.976 (24000/1001) FPS
Color space : YUV
Chroma subsampling : 4:2:0
Bit depth : 8 bits
Scan type : Progressive
Bits/(Pixel*Frame) : 0.263
Stream size : 6.83 GiB (85%)
Writing library : core 148 r2744 b97ae06
Encoding settings : cabac=1 / ref=5 / deblock=1:-3:-3 / analyse=0x3:0x133 / me=umh / subme=11 / psy=1 / psy_rd=1.00:0.05 / mixed_ref=1 / me_range=32 / chroma_me=1 / trellis=2 / 8x8dct=1 / cqm=0 / deadzone=21,11 / fast_pskip=0 / chroma_qp_offset=-3 / threads=12 / lookahead_threads=1 / sliced_threads=0 / nr=0 / decimate=1 / interlaced=0 / bluray_compat=0 / constrained_intra=0 / bframes=5 / b_pyramid=2 / b_adapt=2 / b_bias=0 / direct=3 / weightb=1 / open_gop=0 / weightp=2 / keyint=240 / keyint_min=23 / scenecut=40 / intra_refresh=0 / rc=2pass / mbtree=0 / bitrate=9898 / ratetol=2.0 / qcomp=0.60 / qpmin=0 / qpmax=69 / qpstep=4 / cplxblur=20.0 / qblur=0.5 / ip_ratio=1.40 / pb_ratio=1.30 / aq=2:0.80
Language : English
Default : Yes
Forced : No

Audio #1
ID : 2
Format : AC-3
Format/Info : Audio Coding 3
Codec ID : A_AC3
Duration : 1 h 41 min
Bit rate mode : Constant
Bit rate : 448 kb/s
Channel(s) : 6 channels
Channel positions : Front: L C R, Side: L R, LFE
Sampling rate : 48.0 kHz
Frame rate : 31.250 FPS (1536 SPF)
Bit depth : 16 bits
Compression mode : Lossy
Stream size : 324 MiB (4%)
Title : UKR (TET)
Language : Ukrainian
Service kind : Complete Main
Default : Yes
Forced : Yes

Audio #2
ID : 3
Format : AC-3
Format/Info : Audio Coding 3
Codec ID : A_AC3
Duration : 1 h 41 min
Bit rate mode : Constant
Bit rate : 448 kb/s
Channel(s) : 6 channels
Channel positions : Front: L C R, Side: L R, LFE
Sampling rate : 48.0 kHz
Frame rate : 31.250 FPS (1536 SPF)
Bit depth : 16 bits
Compression mode : Lossy
Stream size : 324 MiB (4%)
Title : UKR (Новий)
Language : Ukrainian
Service kind : Complete Main
Default : No
Forced : No

Audio #3
ID : 4
Format : AC-3
Format/Info : Audio Coding 3
Codec ID : A_AC3
Duration : 1 h 41 min
Bit rate mode : Constant
Bit rate : 640 kb/s
Channel(s) : 6 channels
Channel positions : Front: L C R, Side: L R, LFE
Sampling rate : 48.0 kHz
Frame rate : 31.250 FPS (1536 SPF)
Bit depth : 16 bits
Compression mode : Lossy
Stream size : 463 MiB (6%)
Title : Eng
Language : English
Service kind : Complete Main
Default : No
Forced : No

Text
ID : 5
Format : UTF-8
Codec ID : S_TEXT/UTF8
Codec ID/Info : UTF-8 Plain Text
Title : Eng
Language : English
Default : No
Forced : No

Menu
00:00:00.000 : :Chapter 01
00:06:32.850 : :Chapter 02
00:14:30.452 : :Chapter 03
00:21:58.150 : :Chapter 04
00:27:30.440 : :Chapter 05
00:36:15.506 : :Chapter 06
00:44:49.937 : :Chapter 07
00:53:10.228 : :Chapter 08
01:05:44.190 : :Chapter 09
01:22:54.803 : :Chapter 10
01:30:06.234 : :Chapter 11
01:36:37.833 : :Chapter 12
Скріншоти











Доріжка №1: запис звуку - xslim, синхронізація - aalleexx85
Доріжка №2: запис звуку - Hulk1987, синхронізація - imonko
Особиста подяка пану denixx за надану матеріальну допомогу на підтримку цього і майбутніх релізів.
Джерело:


Срібний реліз (на рейтинг впливає 50% завантаженого)
 Трекер:    Зареєстрований   

Завантажити / скачати фільм українською



відео для новачків



 Зареєстрований:   2018-09-04 12:43
 Розмір:   8.07 GB 
 Оцінка фільму:   10/10 (Голосів: 4)
   
Інші релізи
0mage0 
VIP


З нами з: 06.10.15
Востаннє: 15.12.18
Повідомлень: 407

2018-12-08 10:14  
Цікавий фільм, є схожий про Крістофера Робіна (Вінні Пух).
Ваш часовий пояс: GMT + 2 Години

Нова тема   Відповісти