Школа супергероїв / Sky High (2005) 1080p Ukr/Eng | Sub Eng

Нові коментарі

Нова тема   Відповісти
Автор Повідомлення
Anonymous 







2018-09-04 12:36  
Школа супергероїв / Sky High (2005) 1080p Ukr/Eng | Sub Eng

Школа супергероїв / Sky High (2005) 1080p Ukr/Eng | Sub Eng


Жанр: фантастика, комедія, пригодницький, сімейний
Країна: США



Кінокомпанія: Gunn Films, Max Stronghold Productions Inc., Walt Disney Pictures
Режисер: Майк Мітчелл
Актори: Майкл Ангарано, Курт Рассел, Келлі Престон, Даніель Панабейкер, Крістофер Уїнн, Кевін Хеффернан

Сюжет:
Уілл Стронгхолд - типовий підліток, що збирається вступати в коледж, з досить нетипової сім'ї. Його батьки - Командор Стронгхолд і Джетстрім - супергерої, причому "найуспішніші" і дуже відомі. А Уїлл, відповідно, продовженець сімейної справи і йому належить піти не в звичайний коледж, а в заклад, де з обдарованих суперсилами дітей готують майбутніх супергероїв. Однак, є одна проблема - Уїлл абсолютно не "обдарований" будь-якими суперсилами. Що робитиме звичайна людина в суспільстві супергероїв?!


Тривалість: 01:39:29
Якість: 1080p
Відео:
кодек:
розмір кадру: 1920х800
бітрейт: 8 798 кб/с

Аудіо # 1:
мова: українська
переклад: багатоголосий закадровий
кодек: 2.0
бітрейт: 192 кб/с

Аудіо # 2:
мова: англійська
переклад: оригінал
кодек: 5.1
бітрейт: 640 кб/с

Субтитри:
мова: англійська
тип: програмні (м'які)
формат: *.srt
Info
General
Unique ID : 193798903778694999371106804349987672537 (0x91CC4FAAA6B63304B39E86502BC751D9)
Format :
Format version : Version 4 / Version 2
File size : 6.69 GiB
Duration : 1 h 39 min
Overall bit rate : 9 633 kb/s
Encoded date : UTC 2018-09-04 09:31:07
Writing application : v6.1.0 ('Old Devil') built on Mar 4 2013 09:10:42
Writing library : libebml v1.3.0 + v1.4.0

Video
ID : 1
Format : AVC
Format/Info : Advanced Video Codec
Format profile : [email protected]
Format settings : CABAC / 5 Ref Frames
Format settings, CABAC : Yes
Format settings, ReFrames : 5 frames
Codec ID : V_MPEG4/ISO/AVC
Duration : 1 h 39 min
Bit rate : 8 798 kb/s
Width : 1 920 pixels
Height : 800 pixels
Display aspect ratio : 2.40:1
Frame rate mode : Constant
Frame rate : 23.976 (24000/1001) FPS
Color space : YUV
Chroma subsampling : 4:2:0
Bit depth : 8 bits
Scan type : Progressive
Bits/(Pixel*Frame) : 0.239
Stream size : 5.98 GiB (89%)
Writing library : core 60 r883 cfaac5c
Encoding settings : cabac=1 / ref=5 / deblock=1:-2:-1 / analyse=0x3:0x133 / me=umh / subme=7 / brdo=1 / mixed_ref=1 / me_range=16 / chroma_me=1 / trellis=1 / 8x8dct=1 / cqm=0 / deadzone=5,10 / chroma_qp_offset=0 / threads=3 / nr=0 / decimate=1 / mbaff=0 / bframes=3 / b_pyramid=1 / b_adapt=1 / b_bias=0 / direct=1 / wpredb=1 / bime=1 / keyint=250 / keyint_min=25 / scenecut=40(pre) / rc=2pass / bitrate=8798 / ratetol=1.0 / rceq='blurCplx^(1-qComp)' / qcomp=1.00 / qpmin=10 / qpmax=51 / qpstep=4 / cplxblur=20.0 / qblur=0.5 / ip_ratio=1.40 / pb_ratio=1.30 / aq=2:1.20
Default : Yes
Forced : No

Audio #1
ID : 2
Format : AC-3
Format/Info : Audio Coding 3
Codec ID : A_AC3
Duration : 1 h 39 min
Bit rate mode : Constant
Bit rate : 192 kb/s
Channel(s) : 2 channels
Channel positions : Front: L R
Sampling rate : 48.0 kHz
Frame rate : 31.250 FPS (1536 SPF)
Bit depth : 16 bits
Compression mode : Lossy
Stream size : 137 MiB (2%)
Title : UKR (1+1)
Language : Ukrainian
Service kind : Complete Main
Default : Yes
Forced : Yes

Audio #2
ID : 3
Format : AC-3
Format/Info : Audio Coding 3
Codec ID : A_AC3
Duration : 1 h 39 min
Bit rate mode : Constant
Bit rate : 640 kb/s
Channel(s) : 6 channels
Channel positions : Front: L C R, Side: L R, LFE
Sampling rate : 48.0 kHz
Frame rate : 31.250 FPS (1536 SPF)
Bit depth : 16 bits
Compression mode : Lossy
Stream size : 455 MiB (7%)
Language : English
Service kind : Complete Main
Default : No
Forced : No

Text
ID : 4
Format : UTF-8
Codec ID : S_TEXT/UTF8
Codec ID/Info : UTF-8 Plain Text
Language : English
Default : Yes
Forced : No
Скріншоти









За українську доріжку подяка п. kicyunya
Особиста подяка пану denixx за надану матеріальну допомогу на підтримку цього і майбутніх релізів.
Джерело:


 Трекер:    Зареєстрований   

Завантажити / скачати фільм українською



відео для новачків



 Зареєстрований:   2018-09-04 12:36
 Розмір:   6.69 GB 
 Оцінка фільму:   10/10 (Голосів: 1)
   
Інші релізи
   Школа супергероїв / Sky High (2005) Ukr/Eng | sub Eng kicyunya  8 / 0   2.01 GB   2013-09-08 14:06 
Ваш часовий пояс: GMT + 2 Години

Нова тема   Відповісти