Посилка / The Box (2009) 1080p 2хUkr/Eng | Sub Eng

Нові коментарі

Нова тема   Відповісти
Автор Повідомлення
Anonymous 







2018-09-04 11:21  
Посилка / The Box (2009) 1080p 2хUkr/Eng | Sub Eng

Посилка / The Box (2009) 1080p 2хUkr/Eng | Sub Eng


Жанр: фентезі, трилер, драма, детектив
Країна: США



Кінокомпанія: Warner Bros., Radar Pictures, Media Rights Capital
Режисер: Річард Келлі
Актори: Джеймс Мерсден, Кемерон Діаз, Френк Ланджелла, Ліза К. Віатт, Джілліан Джейкобс, Майкл Зеген

Сюжет:
Шлюб Артура і Норми тріщить по швах: вони постійно сваряться, до того ж у молодій сім'ї фінансова скрута. Несподівано подружжя стає щасливими володарями коробочки з кнопкою.

Їм пояснюють що, якщо натискувати на кнопку, вони негайно отримають 1 млн. доларів. Одна тонкість — у цей момент десь помре абсолютно незнайома їм людина...


Тривалість: 01:55:23
Якість: 1080p
Відео:
кодек:
розмір кадру: 1920х800
бітрейт: 7705 кб/с

Аудіо # 1:
мова: українська
переклад: багатоголосий закадровий
кодек: 2.0
бітрейт: 192 кб/с

Аудіо # 2:
мова: українська
переклад: багатоголосий закадровий
кодек: 2.0
бітрейт: 192 кб/с

Аудіо # 3:
мова: англійська
переклад: оригінал
кодек: 5.1
бітрейт: 1509 кб/с

Субтитри:
мова: англійська
тип: програмні (м'які)
формат: *.srt
Info
General
Unique ID : 253879162026577860097479900096982076385 (0xBEFF59192B2A09898A3D338CB7AECBE1)
Format :
Format version : Version 4 / Version 2
File size : 7.74 GiB
Duration : 1 h 55 min
Overall bit rate : 9 600 kb/s
Encoded date : UTC 2018-09-04 09:13:22
Writing application : v6.1.0 ('Old Devil') built on Mar 4 2013 09:10:42
Writing library : libebml v1.3.0 + v1.4.0

Video
ID : 1
Format : AVC
Format/Info : Advanced Video Codec
Format profile : [email protected]
Format settings : CABAC / 5 Ref Frames
Format settings, CABAC : Yes
Format settings, ReFrames : 5 frames
Codec ID : V_MPEG4/ISO/AVC
Duration : 1 h 55 min
Bit rate : 7 705 kb/s
Width : 1 920 pixels
Height : 800 pixels
Display aspect ratio : 2.40:1
Frame rate mode : Constant
Frame rate : 23.976 FPS
Color space : YUV
Chroma subsampling : 4:2:0
Bit depth : 8 bits
Scan type : Progressive
Bits/(Pixel*Frame) : 0.209
Stream size : 6.06 GiB (78%)
Writing library : core 84 r1416 fcf70c2
Encoding settings : cabac=1 / ref=5 / deblock=1:-3:-3 / analyse=0x3:0x113 / me=umh / subme=10 / psy=1 / psy_rd=1.0:0.1 / mixed_ref=1 / me_range=32 / chroma_me=1 / trellis=2 / 8x8dct=1 / cqm=0 / deadzone=21,11 / fast_pskip=0 / chroma_qp_offset=-3 / threads=6 / sliced_threads=0 / nr=0 / decimate=0 / mbaff=0 / constrained_intra=0 / bframes=6 / b_pyramid=2 / b_adapt=2 / b_bias=0 / direct=3 / wpredb=1 / wpredp=2 / keyint=240 / keyint_min=24 / scenecut=40 / intra_refresh=0 / rc_lookahead=80 / rc=2pass / mbtree=1 / bitrate=7705 / ratetol=1.0 / qcomp=0.70 / qpmin=10 / qpmax=51 / qpstep=4 / cplxblur=20.0 / qblur=0.5 / ip_ratio=1.40 / aq=1:0.80
Language : English
Default : Yes
Forced : No

Audio #1
ID : 2
Format : AC-3
Format/Info : Audio Coding 3
Codec ID : A_AC3
Duration : 1 h 55 min
Bit rate mode : Constant
Bit rate : 192 kb/s
Channel(s) : 2 channels
Channel positions : Front: L R
Sampling rate : 48.0 kHz
Frame rate : 31.250 FPS (1536 SPF)
Bit depth : 16 bits
Compression mode : Lossy
Stream size : 158 MiB (2%)
Title : UKR (NLO-TV)
Language : Ukrainian
Service kind : Complete Main
Default : Yes
Forced : Yes

Audio #2
ID : 3
Format : AC-3
Format/Info : Audio Coding 3
Codec ID : A_AC3
Duration : 1 h 55 min
Bit rate mode : Constant
Bit rate : 192 kb/s
Channel(s) : 2 channels
Channel positions : Front: L R
Sampling rate : 48.0 kHz
Frame rate : 31.250 FPS (1536 SPF)
Bit depth : 16 bits
Compression mode : Lossy
Stream size : 158 MiB (2%)
Title : UKR (ICTV)
Language : Ukrainian
Service kind : Complete Main
Default : No
Forced : No

Audio #3
ID : 4
Format :
Format/Info : Digital Theater Systems
Codec ID : A_DTS
Duration : 1 h 55 min
Bit rate mode : Constant
Bit rate : 1 509 kb/s
Channel(s) : 6 channels
Channel positions : Front: L C R, Side: L R, LFE
Sampling rate : 48.0 kHz
Frame rate : 93.750 FPS (512 SPF)
Bit depth : 24 bits
Compression mode : Lossy
Stream size : 1.22 GiB (16%)
Language : English
Default : No
Forced : No

Text
ID : 5
Format : UTF-8
Codec ID : S_TEXT/UTF8
Codec ID/Info : UTF-8 Plain Text
Language : English
Default : No
Forced : No
Скріншоти










Подяки:
- за доріжку #1 п.: MAKAPOHHIK, POMEO, patriot2305
- за доріжку #2 п.: akon111, antik_2008
- за постер п. hellforces
Особиста подяка пану denixx за надану матеріальну допомогу на підтримку цього і майбутніх релізів.
Джерело:


 Трекер:    Зареєстрований   

Завантажити / скачати фільм українською



відео для новачків



 Зареєстрований:   2018-09-04 11:21
 Розмір:   7.74 GB 
 Оцінка фільму:   9.3/10 (Голосів: 6)
   
Інші релізи
   Посилка / The Box (2009) 2хUkr patriot2305  3 / 0   1.46 GB   2014-03-07 08:13 
   Посилка / The Box (2009) Ukr/Eng antik_2008  2 / 0   2.03 GB   2011-12-31 01:42 
Ваш часовий пояс: GMT + 2 Години

Нова тема   Відповісти