Горбата гора / Brokeback Mountain (2005) 1080p Ukr/Eng | Sub Eng

Нові коментарі

Нова тема   Відповісти
Автор Повідомлення
Anonymous 







2018-09-04 09:30  
Горбата гора / Brokeback Mountain (2005) 1080p Ukr/Eng | Sub Eng

Горбата гора / Brokeback Mountain (2005) 1080p Ukr/Eng | Sub Eng


Жанр: драма, мелодрама, вестерн, ЛГБТ
Країна: США, Канада



Кінокомпанія: Alberta Film Entertainment
Режисер: Енґ Лі (Ang Lee)
Актори: Гіт Леджер (Heath Ledger), Джейк Джилленгол (Jake Gyllenhaal), Ренді Квейд (Randy Quaid), Мішель Вілльямс (Michelle Williams), Ен Гетевей (Anne Hathaway) та інші

Сюжет:
На тлі мальовничих просторів штату Вайомінг розгортається витончена романтична історія складних взаємин двох молодих людей - помічника власника ранчо і ковбоя родео.
Зовсім випадково жарким літнім днем герої зустрічаються і скоро розуміють, що тепер не можуть прожити і дня один без одного. Доля вперто випробовує їх на міцність. Однак загальні труднощі роблять їх взаємини ще більш проникливими...


Тривалість: 02:14:27
Якість: 1080p
Відео:
кодек:
розмір кадру: 1920х1040
бітрейт: 8840 кб/с

Аудіо # 1:
мова: українська
переклад: двоголосий закадровий
кодек: 2.0 (з 5.1)
бітрейт: 192 кб/с

Аудіо # 2:
мова: англійська
переклад: оригінал
кодек: 5.1
бітрейт: 1509 кб/с

Субтитри:
мова: англійська
тип: програмні (м'які)
формат: *.srt
Info
General
Unique ID : 249052895458497652341563470118265022110 (0xBB5DD7C8F2E9409AA7ED0B31A96FE69E)
Format :
Format version : Version 4 / Version 2
File size : 10.1 GiB
Duration : 2 h 14 min
Overall bit rate : 10.8 Mb/s
Movie name : Brokeback Mountain (2005) 1080p
Encoded date : UTC 2018-09-04 07:22:46
Writing application : v6.1.0 ('Old Devil') built on Mar 4 2013 09:10:42
Writing library : libebml v1.3.0 + v1.4.0

Video
ID : 1
Format : AVC
Format/Info : Advanced Video Codec
Format profile : [email protected]
Format settings : CABAC / 4 Ref Frames
Format settings, CABAC : Yes
Format settings, ReFrames : 4 frames
Codec ID : V_MPEG4/ISO/AVC
Duration : 2 h 14 min
Bit rate : 8 845 kb/s
Width : 1 920 pixels
Height : 1 040 pixels
Display aspect ratio : 1.85:1
Frame rate mode : Constant
Frame rate : 23.976 FPS
Color space : YUV
Chroma subsampling : 4:2:0
Bit depth : 8 bits
Scan type : Progressive
Bits/(Pixel*Frame) : 0.185
Stream size : 8.31 GiB (82%)
Writing library : core 128 r2216 198a7ea
Encoding settings : cabac=1 / ref=4 / deblock=1:-3:-3 / analyse=0x3:0x133 / me=umh / subme=11 / psy=1 / psy_rd=1.00:0.15 / mixed_ref=1 / me_range=32 / chroma_me=1 / trellis=2 / 8x8dct=1 / cqm=0 / deadzone=21,11 / fast_pskip=1 / chroma_qp_offset=-3 / threads=6 / lookahead_threads=1 / sliced_threads=0 / nr=0 / decimate=1 / interlaced=0 / bluray_compat=0 / constrained_intra=0 / bframes=6 / b_pyramid=2 / b_adapt=2 / b_bias=0 / direct=3 / weightb=1 / open_gop=0 / weightp=2 / keyint=240 / keyint_min=23 / scenecut=40 / intra_refresh=0 / rc=crf / mbtree=0 / crf=18.5 / qcomp=0.60 / qpmin=0 / qpmax=69 / qpstep=4 / ip_ratio=1.40 / pb_ratio=1.30 / aq=1:1.00
Language : English
Default : Yes
Forced : No

Audio #1
ID : 2
Format : AC-3
Format/Info : Audio Coding 3
Codec ID : A_AC3
Duration : 2 h 14 min
Bit rate mode : Constant
Bit rate : 192 kb/s
Channel(s) : 2 channels
Channel positions : Front: L R
Sampling rate : 48.0 kHz
Frame rate : 31.250 FPS (1536 SPF)
Bit depth : 16 bits
Compression mode : Lossy
Stream size : 185 MiB (2%)
Title : UKR (1+1)
Language : Ukrainian
Service kind : Complete Main
Default : Yes
Forced : Yes

Audio #2
ID : 3
Format :
Format/Info : Digital Theater Systems
Codec ID : A_DTS
Duration : 2 h 14 min
Bit rate mode : Constant
Bit rate : 1 510 kb/s
Channel(s) : 6 channels
Channel positions : Front: L C R, Side: L R, LFE
Sampling rate : 48.0 kHz
Frame rate : 93.750 FPS (512 SPF)
Bit depth : 24 bits
Compression mode : Lossy
Stream size : 1.42 GiB (14%)
Language : English
Default : No
Forced : No

Text
ID : 4
Format : UTF-8
Codec ID : S_TEXT/UTF8
Codec ID/Info : UTF-8 Plain Text
Title : ENG
Language : English
Default : Yes
Forced : No

Menu
00:00:00.000 : :Chapter 1
00:06:53.163 : :Chapter 2
00:11:36.195 : :Chapter 3
00:17:37.223 : :Chapter 4
00:23:03.048 : :Chapter 5
00:28:48.769 : :Chapter 6
00:34:36.616 : :Chapter 7
00:41:13.054 : :Chapter 8
00:45:06.704 : :Chapter 9
00:53:33.252 : :Chapter 10
01:00:25.747 : :Chapter 11
01:05:18.540 : :Chapter 12
01:13:15.182 : :Chapter 13
01:19:41.193 : :Chapter 14
01:29:34.327 : :Chapter 15
01:40:30.358 : :Chapter 16
01:49:53.128 : :Chapter 17
01:55:26.211 : :Chapter 18
02:02:47.360 : :Chapter 19
02:07:55.668 : :Chapter 20
Скріншоти









За українську доріжку подяка п.: SsashI, robotron005
За український постер подяка п. vahaul
Особиста подяка пану denixx за надану матеріальну допомогу на підтримку цього і майбутніх релізів.
Джерело:


 Трекер:    Зареєстрований   

Завантажити / скачати фільм українською



відео для новачків



 Зареєстрований:   2018-09-04 09:30
 Розмір:   10.11 GB 
 Оцінка фільму:   3.1/10 (Голосів: 13)
   
Інші релізи
   Горбата гора / Brokeback Mountain (2005) Ukr/Eng robotron005  3 / 1   2.6 GB   2010-12-15 13:50 
І-р 
Частий відвідувач


З нами з: 21.07.16
Востаннє: 18.12.18
Повідомлень: 39

2018-09-04 14:05  
УВАГА! Пропаганда збочення.
11FrYkT 
Модератор відео


З нами з: 20.02.11
Востаннє: 19.12.18
Повідомлень: 5283

2018-09-04 19:14  
Anonymous , додайте Медіаінфо
Anonymous 







2018-09-04 19:22  
11FrYkT
зроблено

zdlr 
Частий відвідувач


З нами з: 07.12.12
Востаннє: 17.12.18
Повідомлень: 42

2018-09-07 20:20  
І-р
Круте кіно. І актори гарні. І фільм дуже крутий.

winter79 
Новенький


З нами з: 04.01.15
Востаннє: 16.12.18
Повідомлень: 11

2018-12-08 23:23  
Краший фильм !
Ваш часовий пояс: GMT + 2 Години

Нова тема   Відповісти