Офісний розковбас / Office Uprising (2018)

Нові коментарі

Нова тема   Відповісти
Автор Повідомлення
Anonymous 







2018-09-04 09:38  
Офісний розковбас / Office Uprising (2018)

Офісний розковбас / Office Uprising (2018)


Жанр: бойовик, жахи, комедія
Країна: США



Кінокомпанія: Mind the GAP Productions, Lydiard Films, Rumble Riot Pictures
Режисер: Лін Одінг / Lin Oeding
Актори: Брентон Туейтс / Brenton Thwaites, Джейн Леві / Jane Levy, Каран Соні / Karan Soni, Закарі Лівай / Zachary Levi, Грегг Генрі / Gregg Henry, Курт Фуллер / Kurt Fuller, Алан Річсон / Alan Ritchson, Іан Гардінг / Ian Harding та інші

Сюжет: Співробітник зброярні несподівано виявляє, що енергетичний напій перетворює його колег на зомбі.
Офіційний український трейлер:


Рейтинг MPAA: R - особам до 17 років обов'язкова присутність батьків або дорослого опікуна
Вікова категорія: 16+

Тривалість: 01:28:31
Якість:

Відео:
кодек:
розмір кадру: 720х304
бітрейт: 1960 кб/с

Аудіо # 1:
мова: українська
переклад: професійний дубльований | студія ААА-sound
кодек: 5.1
бітрейт: 384 кб/с
Інформація про дубляж
Переклад: Олексій Кондратюк та Юлія Когут
Режисер дубляжу та звукорежисер перезапису: Олександр Єфімов
Ролі дублювали: Андрій Федінчик, Антоніна Якушева, Іван Розін, Дмитро Терещук, Євген Пашин, Андрій Альохін, Ярослав Чорненький, Роман Чорний, Дмитро Гаврилов, Дмитро Сова, Катерина Брайковська, Дмитро Завадський, Юрій Ребрик, Юлія Перенчук, Катерина Буцька та інші.

Фільм дубльовано студією ААА-sound у 2018 році на замовлення компанії "Вольга Україна".
Info
Код:
General
Complete name               : Office Uprising (2018) [Ukr] [Hurtom].avi
Format                      : AVI
Format/Info                 : Audio Video Interleave
File size                   : 1.46 GiB
Duration                    : 1 h 28 min
Overall bit rate            : 2 354 kb/s
Movie name                  : Офісний розковбас / Office Uprising (2018) [Ukr] [Hurtom]
Recorded date               : 18.05.2020
Writing application         : VirtualDubModUkr 1.5.10.2 (build 2542/release)
Writing library             : VirtualDubMod build 2542/release

Video
ID                          : 0
Format                      : MPEG-4 Visual
Format profile              : Advanced [email protected]
Format settings             : BVOP1 / Custom Matrix
Format settings, BVOP       : 1
Format settings, QPel       : No
Format settings, GMC        : No warppoints
Format settings, Matrix     : Custom
Codec ID                    :
Codec ID/Hint               :
Duration                    : 1 h 28 min
Bit rate                    : 1 960 kb/s
Width                       : 720 pixels
Height                      : 304 pixels
Display aspect ratio        : 2.35:1
Frame rate                  : 24.000 FPS
Color space                 : YUV
Chroma subsampling          : 4:2:0
Bit depth                   : 8 bits
Scan type                   : Progressive
Compression mode            : Lossy
Bits/(Pixel*Frame)          : 0.373
Stream size                 : 1.21 GiB (83%)
Writing library             : 73

Audio
ID                          : 1
Format                      : AC-3
Format/Info                 : Audio Coding 3
Commercial name             : Dolby Digital
Codec ID                    : 2000
Duration                    : 1 h 28 min
Bit rate mode               : Constant
Bit rate                    : 384 kb/s
Channel(s)                  : 6 channels
Channel layout              : L R C LFE Ls Rs
Sampling rate               : 48.0 kHz
Frame rate                  : 31.250 FPS (1536 SPF)
Compression mode            : Lossy
Stream size                 : 243 MiB (16%)
Alignment                   : Split across interleaves
Interleave, duration        : 42  ms (1.00 video frame)
Interleave, preload duratio : 500  ms
Title                       : Ukr Dub 5.1 [ААА-sound, iTunes]
Service kind                : Complete Main


Джерело: &

Історія релізу:
04.09.2018 початковий реліз ()
13.04.2019 реліз оновлено до 'у
18.05.2020 реліз оновлено: український дубляж замінено зі стерео на 5.1


 Трекер:    Зареєстрований   

Завантажити / скачати фільм українською



відео для новачків



 Зареєстрований:   2020-05-18 21:38
 Розмір:   1.46 GB 
 Оцінка фільму:   7/10 (Голосів: 65)
 ЗАЛИШАЙТЕСЬ ЯКОМОГА ДОВШЕ НА РОЗДАЧІ! ЗАВАНТАЖИВ САМ - ДАЙ ЗАВАНТАЖИТИ ІНШИМ!
   
oleg5616 
Новенький


З нами з: 28.08.15
Востаннє: 12.07.20
Повідомлень: 8

2018-09-06 14:25  
Фільм дуже тупий. Жарти не смішні, багато дурних моментів, єдине актори більш менш приємні, решта провал. Все ж дякую автору за витрачений час. 3/10
andriy_nv 
VIP


З нами з: 27.06.08
Востаннє: 12.07.20
Повідомлень: 1039

2018-09-06 18:19  
рейтинг високий,
фільм вартий того рейтингу? чи це для цінителів трешу і чорного гумору?

747 
VIP


З нами з: 21.05.10
Востаннє: 12.07.20
Повідомлень: 323

2018-09-07 08:30  
andriy_nv написано:

рейтинг високий,
фільм вартий того рейтингу?

ні, не вартий, фільм тупенький, місцями веселий, чи хоче таким здаватись, 4/10

Apple 
Свій


З нами з: 13.07.08
Востаннє: 12.07.20
Повідомлень: 126

2018-09-07 13:12  
Хотів прийтиз роботи і глянути тупу комедію з плоскими жартами.

Але це перевершило всі сподівання. Такого тупого фільму я не бачив дуже давно.
Не повторюйте помилку - не витрачайте час на це Happy

madagaskar1 
VIP


З нами з: 08.05.14
Востаннє: 12.07.20
Повідомлень: 902

2018-09-07 15:44  
це капець, яка дурня
motsyuk 
Частий відвідувач


З нами з: 08.03.18
Востаннє: 29.06.20
Повідомлень: 29

2018-09-09 19:46  
тупий фiльм - далi нiкуди
tpolit 
VIP


З нами з: 10.01.15
Востаннє: 03.07.20
Повідомлень: 584

2018-09-09 21:06  
Не можу уявити, чому такий рейтинг високий. Я б дав не більше 5 балів з 10. Хоча гра акторів сподобалася.
analviolence 
Новенький


З нами з: 28.01.17
Востаннє: 30.03.20
Повідомлень: 2

2018-09-10 00:11  
фільм не вартий витраченного часу.
однак, акторка симпатична Happy

aiden_finch 
Частий відвідувач


З нами з: 12.10.15
Востаннє: 11.07.20
Повідомлень: 36

2018-09-10 19:36  
Дуже рідко таке буває , але я не витримав і не додивився цей фільм. Не розумію високого рейтингу (((
trump 
Новенький


З нами з: 05.11.12
Востаннє: 12.07.20
Повідомлень: 13

2018-09-12 00:09  
повне лайно, не варто навіть качати 1з10
amaneshka 
Новенький


З нами з: 20.09.16
Востаннє: 12.04.20
Повідомлень: 3

2018-09-16 13:46  
фільм неймовірно тупий... 1 із 10
andriy_nv 
VIP


З нами з: 27.06.08
Востаннє: 12.07.20
Повідомлень: 1039

2019-01-09 19:03  
дурня
Anonymous 







2019-04-13 15:19  
Реліз оновлено до 'у
westigo 
Поважний учасник


З нами з: 07.04.19
Востаннє: 12.07.20
Повідомлень: 153

2019-04-14 15:34  
Не дуже. Один раз переглянути можна. 4/10
Maximenko Yuriy 
VIP


З нами з: 17.11.08
Востаннє: 23.12.19
Повідомлень: 435

2019-04-16 16:45  
а мені норм )
Anonymous 







2020-05-18 21:39  
Реліз оновлено: український дубляж замінено зі стерео на 5.1
Pokemonator 
Поважний учасник


З нами з: 18.06.08
Востаннє: 12.07.20
Повідомлень: 168

2020-07-01 09:26  
Як на мене, фільм навіть трохи більше ніж просто норм. Тут автори непогано проявили самоіронію і поржали над "американським способом життя". Тим більше гра акторів додала плюсів. Такшо від мене тверда 8. Ну і, звісно, на колір і смак... Happy
Ваш часовий пояс: GMT + 2 Години

Нова тема   Відповісти