Голодні Z / Les affamés (2017)

Нові коментарі

Нова тема   Відповісти
Автор Повідомлення
Anonymous 







2018-09-04 09:22  
Голодні Z / Les affamés (2017)

Голодні Z / Les affamés (2017)


Жанр: жахи, фантастика, драма
Країна: Канада



Кінокомпанія: La Maison de Prod, Christal Films Distribution, Téléfilm Canada
Режисер: Робін Обер
Актори: Марк-Андре Гронден, Мон'я Шокрі, Шарлотта Сен-Мартен, Мішлен Ланкто, Люк Пру, Робер Бруйетт

Сюжет:
У невеликому селі недалеко від Квебека все змінилося. Місцеві жителі вже не ті, що раніше: їх тіла розкладаються, а самі вони стали цікавитися виключно свіжою плоттю.


Вікова категорія: 18+

Тривалість: 01:42:59
Якість:

Відео:
кодек:
розмір кадру: 720х432
бітрейт: 1577 кб/с

Аудіо # 1:
мова: українська
переклад: багатоголосий закадровий | студія ААА-sound
кодек: 5.1
бітрейт: 384 кб/с
Інформація про озвучення
Режисер та звукорежисер перезапису: Олександр Єфімов
Ролі озвучили: Дмитро Завадський, Юлія Перенчук, Ярослав Чорненький, Катерина Буцька та інші.

Фільм озвучено студією ААА-sound у 2018 році на замовлення компанії Каскад Україна.
Info
Код:
General
Complete name               : Les affames (2017) [Ukr] [Hurtom].avi
Format                      : AVI
Format/Info                 : Audio Video Interleave
File size                   : 1.42 GiB
Duration                    : 1 h 43 min
Overall bit rate            : 1 972 kb/s

Video
ID                          : 0
Format                      : MPEG-4 Visual
Format profile              : Advanced [email protected]
Format settings             : BVOP1 / Custom Matrix
Format settings, BVOP       : 1
Format settings, QPel       : No
Format settings, GMC        : No warppoints
Format settings, Matrix     : Custom
Codec ID                    :
Codec ID/Hint               :
Duration                    : 1 h 43 min
Bit rate                    : 1 577 kb/s
Width                       : 720 pixels
Height                      : 432 pixels
Display aspect ratio        : 5:3
Frame rate                  : 24.000 FPS
Color space                 : YUV
Chroma subsampling          : 4:2:0
Bit depth                   : 8 bits
Scan type                   : Progressive
Compression mode            : Lossy
Bits/(Pixel*Frame)          : 0.211
Stream size                 : 1.13 GiB (80%)
Writing library             : 73

Audio
ID                          : 1
Format                      : AC-3
Format/Info                 : Audio Coding 3
Commercial name             : Dolby Digital
Codec ID                    : 2000
Duration                    : 1 h 42 min
Bit rate mode               : Constant
Bit rate                    : 384 kb/s
Channel(s)                  : 6 channels
Channel layout              : L R C LFE Ls Rs
Sampling rate               : 48.0 kHz
Frame rate                  : 31.250 FPS (1536 SPF)
Bit depth                   : 16 bits
Compression mode            : Lossy
Stream size                 : 283 MiB (19%)
Alignment                   : Aligned on interleaves
Interleave, duration        : 32  ms (0.77 video frame)
Service kind                : Complete Main


Джерело: &
Подяка AngryBirdsUA за українську доріжку.


 Трекер:    Зареєстрований   

Завантажити / скачати фільм українською



відео для новачків



 Зареєстрований:   2018-09-06 19:14
 Розмір:   1.42 GB 
 Оцінка фільму:   7.1/10 (Голосів: 10)
   
Інші релізи
   Голодні Z / Les affamés (2017) 1080p Ukr/Fre staf777  2 / 0   8.11 GB   2019-04-18 08:56 
   Голодні Z / Les affamés (2017) AVC Ukr/Fre 11FrYkT  5 / 0   1.86 GB   2018-09-06 19:42 
bot 
робот


З нами з: 30.09.07
Востаннє: 26.05.05
Повідомлень: 22315

2018-09-06 19:13  
Тему перенесено з Анонси релізів до форуму Фільми


igor911

Roman7Fedorak 
Свій


З нами з: 30.03.12
Востаннє: 18.10.19
Повідомлень: 105

2018-09-06 21:53  
качати чи нє? чую нюхом то якесь го ф но Sad (1)
tpolit 
VIP


З нами з: 10.01.15
Востаннє: 18.10.19
Повідомлень: 482

2018-09-07 01:37  
Подивився, шкода витраченого часу. Десь на 4 з 10, не більше.
DeWitt_1912 
Свій


З нами з: 13.09.16
Востаннє: 18.10.19
Повідомлень: 95

2018-09-08 02:21  
Малобюджетний артхаус на тему зомбі-апокалипсису з купою кіноляпів :-\ Є цікава ідея про моноліт(и), запозичена зі "Сталкер: Поклик Прип'яті", та й усе - більше зачепитися нема за що.
Слабеньке кіно.

RomahaDj 
Частий відвідувач


З нами з: 17.12.12
Востаннє: 18.10.19
Повідомлень: 48

2018-09-08 11:42  
Будь-ласка, виправте в описі помилку: "...а самі вони стали цікавитися виключно свіжоЮ плоттю".
Anonymous 







2018-09-08 12:10  
RomahaDj, дякую, виправив.
Ваш часовий пояс: GMT + 2 Години

Нова тема   Відповісти