Монстри на канікулах 3 / Hotel Transylvania 3: Summer Vacation (2018)

Нові коментарі

Нова тема   Відповісти
Автор Повідомлення
Anonymous 







2018-09-04 08:18  
Монстри на канікулах 3 / Hotel Transylvania 3: Summer Vacation (2018)

Монстри на канікулах 3 / Hotel Transylvania 3: Summer Vacation (2018)
Усі українські постери:

















Жанр: анімація, фентезі, комедія, сімейний, пригодницький
Країна: США



Кінокомпанія: Columbia Pictures Corporation,Media Rights Capital (MRC),Sony Pictures Animation
Режисер: Геннадій Тартаковський / Genndy Tartakovsky
Актори: Мел Брукс / Mel Brooks, Адам Сендлер / Adam Sandler, Селена Гомес / Selena Gomez, Енді Семберг / Andy Samberg, Кетрін Ган / Kathryn Hahn, Френ Дрешер / Fran Drescher, Стів Бушемі / Steve Buscemi, Девід Спейд / David Spade, Тара Стронг / Tara Strong, Кіген-Майкл Кі / Keegan-Michael Key, Джо Джонас / Joe Jonas? Геннадій Тартаковський / Genndy Tartakovsky та інші

Сюжет:
Дракула разом з Мевіс, Джонні, Деннісом і своїми друзями відправляється в шикарний круїз на лайнері для монстрів. На його борту вампір зустрічає загадкового капітана Еріку, в яку тут же закохується, не підозрюючи, що вона є нащадком самого Абрахама Ван Хельсинга, давнього ворога Дракули та всіх монстрів.
Офіційні українські трейлери та відео:

трейлер 1:


трейлер 2:


пісня Кракена, виконує MÉLOVIN Костянтин Бочаров:


промо 1:


Голос Еріки - Леся Нікітюк - на Каннському кінофестивалі:


Монстри на канікулах 3: Поради перед відпусткою:


промо Леся Нікітюк:


промо 2:


Руслан Сенічкін:


ще промо 3:


Монстри на канікулах вітають з Днем Конституції України:


Монстри на канікулах 3: готуймося до фіналу Ліги Чемпіонів 2018:

Рейтинг MPAA: PG - рекомендується присутність батьків
Вікова категорія: 6+

Тривалість: 01:37:20
Якість: [Hurtom, джерело: Remux]

Відео:
кодек:
розмір кадру: 720х384
бітрейт: 1930 кб/с

Аудіо:
мова: українська
переклад: професійний дубльований | студія LeDoyen
кодек: 5.1
бітрейт: 448 кб/с
Інформація про дубляж
Ролі дублювали:
Еріка / Кетрін Ган - Леся Нікітюк,
Вейн / Стів Бушемі - Руслан Сенічкін,
Кракен / Джо Джонас (пісня) - MÉLOVIN (Костянтин Бочаров)





Info
Код:
General
Complete name               : Hotel Transylvania 3. Summer Vacation (2018) [Ukr] [Hurtom].avi
Format                      : AVI
Format/Info                 : Audio Video Interleave
File size                   : 1.62 GiB
Duration                    : 1 h 37 min
Overall bit rate            : 2 387 kb/s
Movie name                  : Монстри на канікулах 3 / Hotel Transylvania 3: Summer Vacation (2018) [Ukr] [Hurtom]
Genre                       : комедія, мультфільм, сімейний, фентезі
Recorded date               : 10.11.2018
Writing application         : VirtualDubModUkr 1.5.10.2 (build 2542/release)
Writing library             : VirtualDubMod build 2542/release
Comment                     : https://toloka.to/t94843

Video
ID                          : 0
Format                      : MPEG-4 Visual
Format profile              : Advanced [email protected]
Format settings             : BVOP1
Format settings, BVOP       : 1
Format settings, QPel       : No
Format settings, GMC        : No warppoints
Format settings, Matrix     : Default (MPEG)
Codec ID                    :
Codec ID/Hint               :
Duration                    : 1 h 37 min
Bit rate                    : 1 930 kb/s
Width                       : 720 pixels
Height                      : 384 pixels
Display aspect ratio        : 1.85:1
Frame rate                  : 23.976 (24000/1001) FPS
Color space                 : YUV
Chroma subsampling          : 4:2:0
Bit depth                   : 8 bits
Scan type                   : Progressive
Compression mode            : Lossy
Bits/(Pixel*Frame)          : 0.291
Stream size                 : 1.31 GiB (81%)
Writing library             : 67

Audio
ID                          : 1
Format                      : AC-3
Format/Info                 : Audio Coding 3
Commercial name             : Dolby Digital
Codec ID                    : 2000
Duration                    : 1 h 37 min
Bit rate mode               : Constant
Bit rate                    : 448 kb/s
Channel(s)                  : 6 channels
Channel layout              : L R C LFE Ls Rs
Sampling rate               : 48.0 kHz
Frame rate                  : 31.250 FPS (1536 SPF)
Bit depth                   : 16 bits
Compression mode            : Lossy
Stream size                 : 312 MiB (19%)
Alignment                   : Split accross interleaves
Interleave, duration        : 42  ms (1.00 video frame)
Interleave, preload duratio : 500  ms
Title                       : UKR DUB [LeDoyen, 4K Blu-ray]
Service kind                : Complete Main




Джерело:

30.09.2018 реліз оновлено до
10.11.2018 реліз оновлено - український звук зі стерео замінено на 5.1 з 4k UHD




 Трекер:    Зареєстрований   

Завантажити / скачати мультфільм українською



відео для новачків



 Зареєстрований:   2018-11-10 22:56
 Розмір:   1.62 GB 
 Оцінка мультфільму:   9.6/10 (Голосів: 114)
 ЗАЛИШАЙТЕСЬ ЯКОМОГА ДОВШЕ НА РОЗДАЧІ! ЗАВАНТАЖИВ САМ - ДАЙ ЗАВАНТАЖИТИ ІНШИМ
   
alonzo 
Поважний учасник


З нами з: 30.08.15
Востаннє: 15.11.18
Повідомлень: 176

2018-09-25 12:18  
прекрасно!; на рівні перших двох-просто чудово, старий драк. бомба!
alonzo 
Поважний учасник


З нами з: 30.08.15
Востаннє: 15.11.18
Повідомлень: 176

2018-09-28 18:56  
питання: - у чому ж проблема що у нас і досі нема мультфільму "Татко гусак" так хочеться побачити і послухати- як малій дитині!
Anonymous 







2018-09-30 06:32  
Відеоряд оновлено до .
Vano1715 
Новенький


З нами з: 11.03.09
Востаннє: 12.11.18
Повідомлень: 1

2018-10-02 15:40  
Моїм Малявам (так, вибачте, з великої) дуууже сподобалось). Кажуть ще)))
antik_2008 
Релізер і модератор відео


З нами з: 20.10.08
Востаннє: 14.11.18
Повідомлень: 1666

2018-10-26 16:37  
Гарна частина.
Phaeton 
Частий відвідувач


З нами з: 09.04.13
Востаннє: 14.11.18
Повідомлень: 33

2018-11-03 10:43  
Хороший мультфільм, мені сподобався
Anonymous 







2018-11-10 22:59  
Реліз оновлено - український стереозвук з замінено на 5.1 з 4k UHD 
Ваш часовий пояс: GMT + 2 Години

Нова тема   Відповісти