На лінії вогню / In the Line of Fire (1993) 1080p Ukr/Eng | Sub Eng

Нові коментарі

Нова тема   Відповісти
Автор Повідомлення
Anonymous 







2018-09-04 07:54  
На лінії вогню / In the Line of Fire (1993) 1080p Ukr/Eng | Sub Eng

На лінії вогню / In the Line of Fire (1993) 1080p Ukr/Eng | Sub Eng


Жанр: трилер, драма
Країна: США



Кінокомпанія: Columbia Pictures Corporation
Режисер: Вольфганг Петерсен
Актори: Клінт Іствуд, Джон Малковіч, Рене Руссо, Ділан МакДермот, Гері Коул, Фред Долтон Томпсон, Джон Махоні, Грегорі Алан Вільямс, Джим Керлі, Селлі Х'юз

Сюжет:
У той нещасливий день, коли в Далласі був убитий президент Кенеді, Френк Хорріган знаходився серед охорони. Спогади про невиконану місію вже багато років не дають йому спати спокійно.
Через 30 років маніяк-психопат, погрожуючи убити президента, вибирає Френка мішенню для переслідування. І в цій небезпечній грі лише сила волі вирішить, хто залишиться в живих.


Тривалість: 02:08:36
Якість: 1080p
Відео:
кодек:
розмір кадру: 1920х800
бітрейт: 8 202 кб/с

Аудіо # 1:
мова: українська
переклад: багатоголосий закадровий
кодек: 5.1
бітрейт: 384 кб/с

Аудіо # 2:
мова: англійська
переклад: оригінал
кодек: 5.1
бітрейт: 640 кб/с

Субтитри:
мова: англійська
тип: програмні (м'які)
формат: *.srt
Info
General
Unique ID : 241211194636254296033412463516253845485 (0xB57796159A68697F983AD53C940277ED)
Format :
Format version : Version 4 / Version 2
File size : 8.29 GiB
Duration : 2 h 8 min
Overall bit rate : 9 226 kb/s
Encoded date : UTC 2018-09-04 04:48:22
Writing application : v6.1.0 ('Old Devil') built on Mar 4 2013 09:10:42
Writing library : libebml v1.3.0 + v1.4.0

Video
ID : 1
Format : AVC
Format/Info : Advanced Video Codec
Format profile : [email protected]
Format settings : CABAC / 4 Ref Frames
Format settings, CABAC : Yes
Format settings, ReFrames : 4 frames
Codec ID : V_MPEG4/ISO/AVC
Duration : 2 h 8 min
Bit rate : 8 202 kb/s
Width : 1 920 pixels
Height : 800 pixels
Display aspect ratio : 2.40:1
Frame rate mode : Constant
Frame rate : 23.976 FPS
Color space : YUV
Chroma subsampling : 4:2:0
Bit depth : 8 bits
Scan type : Progressive
Bits/(Pixel*Frame) : 0.223
Stream size : 7.20 GiB (87%)
Writing library : core 61 r949M 60c4f7e
Encoding settings : cabac=1 / ref=4 / deblock=1:-3:-3 / analyse=0x1:0x111 / me=umh / subme=6 / psy_rd=1.0:1.0 / brdo=1 / mixed_ref=1 / me_range=16 / chroma_me=1 / trellis=1 / 8x8dct=0 / cqm=0 / deadzone=10,6 / chroma_qp_offset=-4 / threads=6 / nr=0 / decimate=1 / mbaff=0 / bframes=3 / b_pyramid=1 / b_adapt=1 / b_bias=0 / direct=1 / wpredb=1 / bime=1 / keyint=250 / keyint_min=25 / scenecut=40(pre) / rc=2pass / bitrate=8202 / ratetol=1.0 / rceq='blurCplx^(1-qComp)' / qcomp=1.00 / qpmin=10 / qpmax=51 / qpstep=4 / cplxblur=20.0 / qblur=0.5 / ip_ratio=1.40 / pb_ratio=1.30 / aq=2:1.10
Default : Yes
Forced : No

Audio #1
ID : 2
Format : AC-3
Format/Info : Audio Coding 3
Codec ID : A_AC3
Duration : 2 h 8 min
Bit rate mode : Constant
Bit rate : 384 kb/s
Channel(s) : 6 channels
Channel positions : Front: L C R, Side: L R, LFE
Sampling rate : 48.0 kHz
Frame rate : 31.250 FPS (1536 SPF)
Bit depth : 16 bits
Compression mode : Lossy
Stream size : 353 MiB (4%)
Title : UKR (NTN)
Language : Ukrainian
Service kind : Complete Main
Default : Yes
Forced : Yes

Audio #2
ID : 3
Format : AC-3
Format/Info : Audio Coding 3
Codec ID : A_AC3
Duration : 2 h 8 min
Bit rate mode : Constant
Bit rate : 640 kb/s
Channel(s) : 6 channels
Channel positions : Front: L C R, Side: L R, LFE
Sampling rate : 48.0 kHz
Frame rate : 31.250 FPS (1536 SPF)
Bit depth : 16 bits
Compression mode : Lossy
Stream size : 589 MiB (7%)
Language : English
Service kind : Complete Main
Default : No
Forced : No

Text
ID : 4
Format : UTF-8
Codec ID : S_TEXT/UTF8
Codec ID/Info : UTF-8 Plain Text
Language : English
Default : Yes
Forced : No
Скріншоти








За українську доріжку подяка п. Romario_O
Особиста подяка пану denixx за надану матеріальну допомогу на підтримку цього і майбутніх релізів.
Джерело:


Срібний реліз (на рейтинг впливає 50% завантаженого)
 Трекер:    Зареєстрований   

Завантажити / скачати фільм українською



відео для новачків



 Зареєстрований:   2018-09-04 07:54
 Розмір:   8.29 GB 
 Оцінка фільму:   6/10 (Голосів: 1)
   
Інші релізи
11FrYkT 
Модератор відео


З нами з: 20.02.11
Востаннє: 19.10.18
Повідомлень: 5080

2018-09-04 13:36  
Anonymous написано:
me=umh / subme=6

Параметри кодування мають відповідати хоча б me=umh, subme=7, ref=3

+380954897458 
Свій


З нами з: 02.06.17
Востаннє: 18.10.18
Повідомлень: 73

2018-09-04 21:20  
Клінт Все Наше Іствуд! Обожнюю цього чувака, і режисерські і акторські роботи...
Ваш часовий пояс: GMT + 2 Години

Нова тема   Відповісти